This file was generated by Ched 2.7.0.0.
#TITLE ""
#ARTIST ""
#DESIGNER ""
#DIFFICULTY 0
#PLAYLEVEL
#SONGID ""
#WAVE ""
#WAVEOFFSET 0
#JACKET ""
#REQUEST "ticks_per_beat 480"
#00002: 4
#BPM01: 183
#00008: 01
#TIL00: ""
#VOLUME: ""
#HISPEED 00
#MEASUREHS 00
#0001a:14
#00114:14
#00218:14
#00312:14
#0041a:14
#00514:14
#00618:14
#00610:41
#00712:14
#0161a:0014
#01610:0041
#0171a:0014
#01814:0014
#01914:0014
#02018:0014
#02118:0014
#02212:0014
#02312:0014
#0241a:0014
#0251a:0014
#02614:0014
#02610:0041
#02714:0014
#02818:0014
#02918:0014
#03012:0014
#03112:0014
#0321a:0014
#03312:0014
#03412:0014
#03518:0014
#03618:0014
#03610:0041
#03714:0014
#03814:0014
#0391a:0014
#0401a:0014
#04112:0014
#0411f:0011
#04212:0014
#04318:0014
#04418:0014
#04514:0014
#04614:0014
#0471a:0014
#0481a:0014
#04912:0014
#05112:16
#05118:0016
#05110:0041
#05212:16
#05418:0016
#05512:16
#05518:0016
#05612:16
#05918:16
#05912:0016
#06012:16
#06218:0016
#06318:16
#06312:0016
#06412:16
#06618:0016
#06610:0041
#06718:1616
#06818:16
#06812:0016
#06912:1616
#07012:16
#07018:0016
#07112:16
#07212:0016
#07318:16
#07418:0016
#07518:1616
#07618:16
#07612:0016
#07712:1616
#07812:16
#07818:0016
#07912:16
#08012:0016
#08118:16
#08218:0016
#08314:0014
#08418:0014
#08512:0014
#0861a:0014
#08714:0014
#08818:0014
#05018:0026
#0501f:0021
#05818:0026
#0083a0:14
#0093a0:24
#010340:14
#011340:24
#012380:14
#013380:24
#014320:14
#015320:24
#052380:0016
#053380:26
#053320:0016
#054320:26
#056380:0016
#057380:26
#057320:0016
#058320:26
#060380:0016
#061380:26
#061320:0016
#062320:26
#064380:0016
#065380:26
#065320:0016
#066320:26
#071380:0016
#072380:26
#073320:0016
#074320:26
#079380:0016
#080380:26
#081320:0016
#082320:26
#089320:0014
#090320:0024
