This file was generated by Ched 2.7.0.0.
#TITLE ""
#ARTIST ""
#DESIGNER ""
#DIFFICULTY 0
#PLAYLEVEL
#SONGID ""
#WAVE ""
#WAVEOFFSET 0
#JACKET ""
#REQUEST "ticks_per_beat 480"
#00002: 4
#BPM01: 150
#00008: 01
#TIL00: ""
#VOLUME: ""
#HISPEED 00
#MEASUREHS 00
#05214:14
#05318:14
#05118:14
#0011a:14
#00214:14
#00318:14
#00412:14
#00518:14
#00614:14
#0071a:14
#00812:14
#0091a:14
#0101a:14
#01114:14
#01214:14
#01318:14
#01310:41
#01418:14
#01512:14
#01612:14
#02118:14
#02214:14
#0231a:14
#02412:14
#02518:2616
#02510:41
#02612:1616
#02718:16
#02712:0016
#02912:1616
#03018:1616
#03112:16
#03118:0016
#03318:14
#03310:41
#03414:14
#04518:14
#04612:14
#0471a:14
#05412:14
#0551a:14
#05612:14
#05812:2616
#0581f:21
#05810:0041
#05918:1616
#06012:16
#06018:0016
#06218:2616
#06312:1616
#06418:16
#06412:0016
#0671a:14
#06812:14
#06918:14
#07014:14
#0711a:14
#07212:14
#07318:14
#06614:14
#0501f:11
#0351a:24
#03612:24
#04910:41
#04110:41
#0173a0:14
#0183a0:24
#019320:14
#020320:24
#028380:1626
#032320:1626
#0373a0:14
#038380:34
#0393a0:34
#040380:24
#041320:14
#042340:34
#043320:34
#044340:24
#048340:1434
#050330:26
#0573a0:1424
#061320:1626
#065380:1626
#074340:14
#075340:34
#076340:24
