This file was generated by Ched 2.7.0.0.
#TITLE ""
#ARTIST ""
#DESIGNER ""
#DIFFICULTY 0
#PLAYLEVEL
#SONGID ""
#WAVE ""
#WAVEOFFSET 0
#JACKET ""
#REQUEST "ticks_per_beat 480"
#00002: 4
#BPM01: 115
#00008: 01
#TIL00: ""
#VOLUME: ""
#HISPEED 00
#MEASUREHS 00
#0141a:14140000
#01412:14140000
#01418:0000000014000014
#01414:00000000000000000000001400000000
#01410:41
#00212:00000000000000130000000000000000
#00215:0000000000130000
#00218:00000000000000000013000000001300
#0021b:00000013
#00217:00333333330000000000000000000000
#02612:00130000
#0261b:0013
#02618:00130000
#02615:0013
#0261a:0000000000000014
#02610:41
#0011b:00000000000000130000000000000000
#00118:0013000000130000
#00115:00000000130000000013000000000000
#00112:24
#0001a:0000000000000014
#0031b:00000000000000130000000000000000
#00315:00000000000000000013000000000000
#00318:0000000000130000
#00316:00333333330000000000000000000000
#00412:1300000000000014
#00415:0000001300000000
#0041b:1313
#00512:00000000000000130000000000000000
#00515:0013000000130000
#00518:00000000130000000013000000000000
#0051a:24
#00615:00000000000013000000000000130000
#00618:0000130000000013
#00812:00000013
#00815:0000131300000000
#00818:00000000001300130000000000000000
#00810:41
#00915:0000000000000013
#0091b:00000013000000000013000000000000
#00918:0000001300000000
#0101b:13
#01012:00000000000000130000000000000000
#01018:00003333000000000000000000001300
#01015:00000000000000000033333300000000
#01118:0000000000000013
#01112:00000013000000000013000000000000
#01115:0000001300000000
#0131a:00140000
#01312:24140000
#01314:0000000014000014
#01318:00000000000000000000001400000000
#01512:14140000
#0151a:14140000
#01514:0000000014000014
#01518:00000000000000000000001400000000
#0161a:14140000
#01612:14140000
#01618:0000000014000014
#01614:00000000000000000000001400000000
#01712:1400003300000000
#0171a:14
#01715:00130000
#01718:00000013
#0171b:0000000000000033
#01815:00130000
#01818:00000000000000000000001300000000
#01812:0000003300000000
#0191a:14
#01912:1400000000000033
#01918:00130000
#01915:00000013
#0191b:0000003300000000
#02015:00000000000000000000001300000013
#02018:00000000130000000000000000130000
#0201b:0000003300000000
#02010:41
#02218:00000000000000000000001300000000
#02212:00130000
#02215:0000003300000000
#0231a:14
#02312:14000013
#0231b:00130000
#02318:0000003300000000
#02315:0000000000000033
#02415:00000000000000000000001300000000
#0241b:00130000
#02418:0000003300000000
#02515:00000000000000130000000000000000
#02512:2400000033333300
#0251a:24
#0271b:00000000000000130000000000000000
#02718:0013000000130000
#02715:00130000
#02712:24000000000000000013000000000000
#0271f:11
#03018:00000000001300130000000013000000
#03015:0000131300000000
#03012:0000000013000014
#02818:00000013000000003300000000000000
#0281b:00000000333313330000000000000000
#0291b:13
#02915:13
#02912:0013
#02918:0013
#03112:00000000000000130000000000000000
#03115:0013000000130000
#03118:00130000
#0311b:00000000000000000013000000000000
#0311a:24
#0321b:00000000000000130000000000330000
#03218:00000000130000000033001300000000
#03215:0000001300000000
#03312:13000000000000000033333300000000
#03315:00001300000000130000000000000000
#0331b:00130000
#03318:0000001300000000
#03418:13
#03415:00000013
#0341b:00330033330033000000000000000000
#0361b:13
#03612:00000000000000130000000000000000
#03618:00003333000000000000000000001300
#03615:00000000000000000033333300000000
#03718:0000000000000013
#03715:00000013000000000013000000000000
#03712:0000001300000000
#03914:00140014
#03918:0013
#0391a:24
#0401b:13
#04014:00140000
#04018:0013
#04015:00000013
#04012:00000000000000000000000000333333
#04118:00000013000000000000000000000013
#04115:0000000000000013
#0411b:00000000333313333300000000000000
#04215:13000000001300000000000000000000
#04218:00000013000000130000000000000000
#04212:00000000000000000033333300000000
#04318:00140014
#04312:0013
#04315:13
#04415:13
#04418:00140013
#04412:0013
#0441b:00000000000000000000000000333333
#04618:0000000000000013
#04718:0013001300000013
#04715:00000000130000000033000000000000
#04712:2313
#0471b:23
#04710:41
#04815:00001300000013000000000000130000
#04812:13000000000000000000000000003333
#0481b:1313
#04818:00000000130000000033000000000000
#04918:00000013000000000000000000000000
#04912:00000000000000000000000000130000
#0491b:00000000333313333300000000000000
#04915:00000000000000000000000000003333
#0501b:0013000000001300
#05015:0000000000130013
#05018:00000033330000000000000000000000
#01212:13
#0121b:00000000000000130000000000000000
#01215:0000000000000013
#01218:00000000000000000033000000000013
#03515:0000000000000013
#03518:00000013000000000013000000000000
#0351b:0000001300000000
#0351f:21
#03510:0041
#04515:00000013000000000000000000000000
#04512:00000000333313333300000000000000
#05115:0013001300000013
#05118:00000000130000000033000000000000
#0511b:2313
#05112:23
#05218:00001300000013000000000000130000
#05215:00000000130000000033000000000000
#05212:2313
#0521b:23000000000000000000000000003333
#05315:00000013000000000000000000000000
#05312:00000000333313333300000000000000
#05518:0000000000000013
#05515:00000000000000000000000000000013
#0551b:23000000000000332300000000000000
#05512:00000033230000000000003323000000
#05618:13
#0211a:14
#02112:00130000
#0211b:00000013
#02115:0000003300000000
#02118:0000000000000033
#03812:2300000000000024
#0381b:23
#0381a:0024
#03816:00000000000000000000002400000000
#0541b:00000000000000000000000000000033
#00712:00333333330000000000000000000000
#0071b:00000000000000003333333333330000
#00852:00000053
#00858:00000000000000130000000000000000
#00955:0000000000000013
#0095b:00000053000000000053000000000000
#00958:0000005300001300
#0105b:63
#01052:00000000000000530000000000000000
#01058:0000000000000053
#01158:0000000000000013
#01152:00000063000000000063000000000000
#01155:0000006300001300
#01354:0000000014000014
#01358:00000000000000000000001400000000
#01458:0000000014000014
#01454:00000000000000000000001400000000
#01554:0000000014000014
#01558:00000000000000000000001400000000
#01658:0000000014000014
#01654:00000000000000000000001400000000
#01755:00530000
#01758:00000063
#01752:00000000000000000013000000000000
#01855:00530000
#0185b:00130000000000000000000000000000
#01852:00000000000000000013000000000000
#02555:00000000000000530000000000000000
#02858:00000053000000000000001300000000
#0285b:0000002300000000
#0295b:53000013
#02955:53000013
#02952:00136300
#02958:00136300
#0325b:00000000000000530000000000000000
#03258:00000000000000000000006300000000
#03458:53
#03455:00000063
#0365b:63
#03652:00000000000000530000000000000000
#03658:0000130000000053
#03655:00000013
#03954:00140014
#04054:00140000
#04055:00000053
#04158:00000063000000000000001300000000
#0415b:0000002300000000
#04358:00140014
#04458:00140063
#04752:0063
#04755:00000000000000000000001300000000
#04855:00000000000000000000000000530000
#0485b:0053
#04858:00000000000000000000001300000000
#04958:00000063000000000000001300000000
#04952:00000000000000000000000000630000
#0495b:0000002300000000
#0505b:0053000000001300
#05055:0000000000130000
#05058:0013
#0545b:1313
#05452:00130013
#01252:53
#0125b:00000000000000630000000000000000
#0235b:00530000
#02352:00000063
#02358:00000000000000000013000000000000
#0245b:00530000
#02455:00130000000000000000000000000000
#02458:00000000000000000013000000000000
#03355:00000000000000530000000000000000
#03555:0000000000000013
#03558:00000063000000000063000000000000
#0355b:0000006300001300
#03552:13
#03755:00000053000000000053000000000000
#03752:0000005300000000
#0375b:13
#04555:00000053000000000000001300000000
#04552:0000002300000000
#0515b:0053
#05158:00000000000000000000001300000000
#05252:0063
#05258:00000000000000000000000000630000
#05255:00000000000000000000001300000000
#05355:00000053000000000000001300000000
#05352:0000002300000000
#0535b:13
#05658:13
#0215a:14
#02152:00630000
#0215b:00000053
#02155:00000000000000000013000000000000
#03052:0013
#0555b:1313
#05552:00130013
#01958:00630000
#01955:00000053
#0195b:00000000000000000013000000000000
#02058:00630000
#02052:00130000000000000000000000000000
#0205b:00000000000000000013000000000000
#02252:00630000
#02258:00130000000000000000000000000000
#02255:00000000000000000013000000000000
#001350:00000013
#001320:0000000000000023
#0023b0:13
#002370:00333333332300000000000000000000
#003320:13
#003360:00333333332300000000000000000000
#003350:00000013
#003320:0000000000000023
#005380:00000013
#0053b0:0000000000000023
#006320:13
#006350:0023000000000000
#006380:00000000000000130000002300000000
#0063b0:00000000000000000033000000000000
#007350:13
#007320:00333333332300000000000000000000
#007380:00000000000000130000000000000000
#0073b0:00000000000000003333333333332300
#008320:00000013
#009350:23
#0093b0:00000013000000003333000000000000
#009380:00000000003333000000003323000000
#0103b0:13
#010380:00003333230000000000000000000000
#010320:00000000000000130000000000000000
#010350:00000000000000000033333323000000
#010380:0000000000000013
#0113b0:23
#011320:00000013000000003333000000000000
#011350:00000000003333000000003323000000
#012320:13
#012350:00000033230000000000000000000000
#0123b0:00000000000000130000000000000000
#012380:00000000000000000033330023000000
#017350:00130000
#017320:00000000000033330023000000000000
#017380:00000013
#0173b0:00000000000000000000000000003333
#0183b0:00230000000000000000000000000000
#018350:00130000
#018320:00000000000033330023000000000000
#018350:0000000000001323
#019380:00130000
#0193b0:00000000000033330023000000000000
#019350:00000013
#019320:00000000000000000000000000003333
#020320:00230000000000000000000000000000
#020380:00130000
#0203b0:00000000000033330023000000000000
#021320:00130000
#021350:00000000000033330023000000000000
#0213b0:00000013
#021380:00000000000000000000000000003333
#022380:00230000000000000000000000000000
#022320:00130000
#022350:00000000000033330023000000000000
#022350:0000000000001323
#0233b0:00130000
#023380:00000000000033330023000000000000
#023320:00000013
#023350:00000000000000000000000000003333
#024350:00230000000000000000000000000000
#0243b0:00130000
#024380:00000000000033330023000000000000
#024380:0000000000001323
#025350:00000000000000130000000000000000
#025320:00000000000000003300330033330023
#027350:00000013
#027320:0000000000000023
#028380:00000013000000003333002300000000
#0283b0:00000000333333330000000000000000
#0293b0:13
#029380:00003333230000000000000000000000
#029351:13
#029321:00003333230000000000000000000000
#029321:0013
#029351:00000000000000000000333323000000
#029380:0013
#0293b0:00000000000000000000333323000000
#030380:13
#0303b0:0023000000000000
#031380:00000013
#0313b0:0000000000000023
#032350:1323000000000000
#0323b0:00000000000000130000000000332300
#032380:00000000000000000033003300000000
#033350:00000000000000130000000000000000
#033320:00000000000000000033333323000000
#034380:13
#0343b0:00330033330033230000000000000000
#034350:00000013
#035320:23
#035380:00000013000000003333000000000000
#0353b0:00000000003333000000003323000000
#0363b0:13
#036380:00003333230000000000000000000000
#036320:00000000000000130000000000000000
#036350:00000000000000000033333323000000
#036380:0000000000000013
#0373b0:23
#037350:00000013000000003333000000000000
#037320:00000000003333000000003323000000
#040350:00000013
#040320:00000000000000000000000000333333
#041320:23
#041380:00000013000000000033002300000000
#0413b0:00000000333333333300000000000000
#042350:0013
#042320:00000000000000000033333333002300
#044380:00000013
#0443b0:00000000000000000000000000333333
#0453b0:23
#045350:00000013000000000033002300000000
#045320:00000000333333333300000000000000
#045380:00000000000000000000000000001333
#046380:23
#046350:00001333230000000000000000000000
#0463b0:00000000000013332300000000000000
#046320:00000000000000000000133323000000
#047320:0013
#047350:00000000000000000033002300000000
#0483b0:0013
#048380:00000000000000000033002300000000
#048350:00000000000000000000000000130000
#048320:00000000000000000000000000003333
#049320:23
#049380:00000013000000000033002300000000
#0493b0:00000000333333333300000000000000
#049320:00000000000000000000000000130000
#049350:00000000000000000000000000003333
#050350:23
#0503b0:0013000000000000
#050380:00000033333300332300000000000000
#0513b0:0013
#051380:00000000000000000033002300000000
#052320:0013
#052350:00000000000000000033002300000000
#052380:00000000000000000000000000130000
#0523b0:00000000000000000000000000003333
#0533b0:23
#053350:00000013000000000033002300000000
#053320:00000000333333333300000000000000
#0533b0:00000000000000000000000000001333
#0543b0:23
#054320:00001333230000000000000000000000
#0543b0:00000000000013332300000000000000
#054320:00000000000000000000133323000000
#054380:0000000000000013
#0543b0:00000000000000000000000000000033
#0553b0:23
#055350:0013000000000000
#055320:00000033230000000000000000000000
#055380:0000001300000000
#0553b0:00000000000000332300000000000000
#055350:0000000000130000
#055320:00000000000000000000003323000000
