This file was generated by Ched 2.7.0.0.
#TITLE ""
#ARTIST ""
#DESIGNER ""
#DIFFICULTY 0
#PLAYLEVEL
#SONGID ""
#WAVE ""
#WAVEOFFSET 0
#JACKET ""
#REQUEST "ticks_per_beat 480"
#00002: 4
#BPM01: 138
#00008: 01
#TIL00: ""
#VOLUME: ""
#HISPEED 00
#MEASUREHS 00
#04012:00130000
#04014:001400000000000000000000
#04018:001400000000
#0401a:24000000000000000000000000520052
#0401b:00000052
#04019:0000000000000052
#00816:0000000000000013
#00812:5313
#0081b:0000000000000013
#00817:13
#00810:41
#00916:00000013
#00917:00000000130000130000000000001300
#00912:00000000000000130000000000001300
#0101b:0013000000000000
#01012:0000001300000000
#01016:0013000000000000
#01018:00000000000000001300001300000000
#01015:00000000000000000013001300000000
#01112:13000000001300000000000013000000
#01118:0000130000000000000000001300000000000053005300000000000000001300
#01115:0000000013000000000000000000130000000000000000000000005353535300
#0111b:00000013000000001300000053000000
#0111a:0000000000000000000000000000000000530000000000530000000000000000
#01119:00000000000000000053005300000000
#01117:0000000000530000
#01113:0000000000000000000000000000000000000000000000000053000000000000
#01114:00000000000000000000000000530000
#0131b:13000000000000130000000000001300
#01316:13
#01317:0013000000000000
#01312:0013000000000000
#01315:00000000130000130000000000130000
#01318:00000000001300000000000013000000
#01512:1313000000001300
#01518:13001300000000130000000000000000
#0151b:00130000
#01515:00000000001300000000000000000000
#01617:13000000000000130000000000000000
#01616:0000000000130013
#01618:00130000
#01615:00000000001300000000000000000000
#0161b:0013000000000013
#01612:23000000000000130000000000000000
#01716:00130000
#0171b:00000000001300000000000013000000
#01712:00000000000000130000000000001300
#01717:00001300000000130000000000001300
#01817:0013000000000000
#01818:0013
#01812:00001300000000000013000000000000
#01816:0000001300000000
#0181b:0000000000130000
#02515:00000000001300000000000000000000
#02512:00000013
#0251b:0000130000000013
#02518:0000001300000000
#02418:00000000130000000000001300000000
#02412:0013000000000013
#02413:00130000
#02414:0000001300000000
#02415:0013
#0241b:13
#02615:13000000000000130000000000000000
#0261a:13
#02619:0013000000000000
#02618:00130000
#0261b:0000000000130000
#03115:00000000000013001300001300000000
#03118:00000000130000130000130000000000
#0311b:00130000000000000000000013000000
#03117:0000000000000013
#03112:00130000230000000000000000001300
#03216:0013000000000000
#0321b:0013001313000000
#03219:13
#03214:13
#03215:0000000000000013
#03218:00000000000000000000000013000013
#0381b:1313000000000000
#03816:0013000000000000
#03818:000014001414
#03814:000000000014001400000014
#03812:00240026
#0381a:0024
#04315:0013000013130000
#0431b:1300001300005300
#04318:00000013000000000013000000000053
#04312:00130013
#0431a:00000000000000000000000000530000
#04319:0000000000000053
#04515:13000000130000000000000000000013
#04518:00130000000000000000000000001300
#04512:0013000000000000
#0451b:00000013000000000000000000000000
#05612:0000000013001313
#0561b:0000000013000013
#05617:00000013
#05614:0000001300000000
#05619:0000000000130000
#0571b:1300000000130000
#05716:1300000000130000
#05719:0013000000000000
#05714:0013000000000000
#05712:00130000
#05717:00130000
#0611b:1313000013000000
#06112:1313000013000000
#06115:00130000
#06118:00230013
#00212:13000023
#00215:0000000013130013
#00218:00000000000000000013001300130000
#0021b:00333333333333330000000000000013
#00217:13
#00318:00130000000000001300000000130000
#00315:00000013000000130000001300000000
#00312:00000000001300000013000000000000
#0031b:00000000000023000000000000000013
#00418:00130000001300000000000000001300
#00415:00001300000000130000001300000000
#0041b:00000013000000000000130013000000
#00412:23000000000000000013000000130013
#0051b:13001300000023000000000000000013
#00515:00130000001300130000001300000000
#00512:00000013000000000013000000000000
#00518:00000000130000001300000000130000
#00618:00130000001300000000000013000000
#00615:00001300000000130000001300000013
#0061b:00000013000000000000230000000000
#00612:23000000000000000013000000130000
#00712:0000131300131300
#00718:00130000001300000013000000000000
#0071b:00000013000000130000001300130000
#00715:0000000000000000000000000000000013000000000000000000000000530000
#00716:0000000000000013
#00714:00000000000000000000000000000053
#00713:0000000000000000000000000000000000000000000000000000000000000053
#01217:00000013
#01216:00000000000000130000000000000000
#01412:00131300
#0141b:00000013
#01417:0013
#01912:1313
#01918:00130000000013000013001300001300
#01915:00001300001300000000130000130013
#0191b:00000013000000000000000000000000
#01910:41
#02017:0013000000000000
#02015:00130000
#02018:00000000001300000000000000000000
#02016:00000000000000130000000000000000
#0201b:00000000000000130000000013000000
#02112:1313000000000000
#02115:00000000130000130000000000130000
#0211b:13001300000000130000000000000000
#02118:00000000001300000000000013001300
#0221b:00000013000000000000000000000000
#02215:0013
#02212:00000013
#02314:001400000014001400000014
#02318:001414001414
#0231a:2424
#02312:00240024
#02718:00130000000000000000000000000000
#02715:1313000000000000
#02717:00000013
#02712:00000013
#0271b:0023
#02710:0041
#0281b:00130013
#02812:0013
#02816:13
#02817:00000000000000000000000000000013
#02917:00130000
#02912:0013130000000000
#0291b:0000000000000013
#03018:0000000000001313
#03015:00000000000000000000000000130013
#03012:0013
#0331b:00130000130000000000000000001300
#03315:00001300130000130000130000000000
#03318:00000000000013001300001300000000
#03312:13000013
#03316:0000000000000013
#03414:13
#03419:13
#03412:0013000000002300
#0341b:0000001313000000
#03416:0013
#03417:0013000000002300
#03615:00000000000000000000000013000013
#03618:0000000000000013
#0361b:0013001313001300
#03616:0013000000000000
#03619:13
#03614:13
#03612:00130000
#03716:00130000
#03717:0013
#03712:00130000000000000000000013000000
#0371b:13230000
#03718:0013000000000000
#03918:261414261414
#03914:001400000014001400000014
#03912:00260024
#04215:0000000013130000
#04218:00000000000000000013000000000000
#0421b:00130000
#0461b:1300001300000000
#04612:0013130000000000
#04616:0000000013130000
#04619:00000000000000000013000000005300
#04617:00000053
#04618:00000000000000000000000000530000
#0461a:00000000000000000000000000000053
#0481b:1300230000000013
#04818:00000000000013001300001300000000
#04815:00000000130000130000130000000000
#04812:00000013
#04816:0000000000000013
#0481f:00210000
#05516:0013000000000000
#0551b:0013000000000000
#05517:00000000000000000000001300000000
#05512:13000000000000000000001300000000
#06212:130000000014000014000014
#06216:000000001400001400001400
#0621a:00242424
#06418:00130013001300000013000000000000
#06415:23001300000013000000001300000013
#0641b:00000000000000130000000000002300
#06412:00000000230000000000000000130000
#06518:13000000001300000013000000130000
#06512:00130000000000002300000000000000
#06515:00000013000000000000130000000013
#0651b:00000000000000130000001300000000
#06612:00130000001300130000130000002300
#0661b:00001300130000001300001300000013
#06615:00000013000000000000000013000000
#06618:00000000000013000000530000130000
#0661a:000000000000000000000000005300000000000000000000
#06619:000000000000005300000000
#06715:13000000000000000000002300000000
#06712:00000000000000240013000000240000
#06718:00230000000000000000130000000000
#0671a:00000024000000000000000000000000
#06716:00000000002400000000000000000024
#0671b:0023
#0681b:00000013000000000000000013000000
#06815:00000000130000000000000000130000
#0681a:00240000000000240000000000001300
#06814:00000000000000000000000000000013
#06816:00000000000000000024000000000000
#06812:00002300000000000000002400000000
#06818:00000000002300000000000000000000
#06919:13000000005300000000000000000000
#06913:00130000000000000000000000000000
#06918:0013000000000000
#06912:00000013000053000000240000000000
#0691a:0000000000240000
#0691b:00530000
#06917:0000005300000000
#06914:000000000053000000000000
#06916:000000000000000000000053000000000000000000000000
#05817:00130000
#05812:00130013
#0581b:0013
#0591b:1313
#05919:0013001300130013
#05917:00130013
#05914:0000001300130013
#05912:00130013
#05916:0013
#05910:00410000
#06019:0013001300130000
#0601b:1313
#06017:00130000
#06014:0013001300130000
#06016:1313
#06012:00130000
#06316:001400001400001400001400
#06312:000014240000240000240000
#0631a:240000000014000014000014
#03514:0000001300000000
#0351b:23130013
#03517:00000000000000130000000000001300
#03512:0000230013000013
#03519:0000000000130000
#03516:23000000000000000000001300000000
#03510:00410000
#00015:0013000000000000
#0001b:0013000000000000
#00012:00000013
#00018:00000013
#00115:0000001300000000
#0011b:0000001300000000
#04112:00000013
#0411f:00110000
#0411b:52
#0411a:00520000000000000000000000000000
#04119:0052000000000000
#04917:0013000000000000
#04912:0013001313000000
#04914:13
#04919:13
#04918:0000000000000013
#04915:00000000000000000000000013000013
#04910:0041
#05012:00130000130000000000000000001300
#05018:00001300130000130000130000000000
#05015:00000000000013001300001300000000
#0501b:13000013
#05017:0000000000000013
#05119:13
#05114:13
#0511b:0013000000002300
#05112:0000001313000000
#05117:0013
#05116:0013000000002300
#05318:00000000000000000000000013000013
#05315:0000000000000013
#05312:0013001313001300
#05317:0013000000000000
#05314:13
#05319:13
#0531b:00130000
#05417:00130000
#05416:0013
#0541b:00130000000000000000000013000000
#05412:13230000
#05415:0013000000000000
#05219:0000001300000000
#05212:23130013
#05216:00000000000000130000000000001300
#0521b:0000230013000013
#05214:0000000000130000
#05217:23000000000000000000001300000000
#0471b:53530000
#0471a:00000000005300000000000000000000
#04719:0000005300000000
#04718:00000000000000530000000000000000
#04717:0053
#04716:53
#04715:00530000000000000000000000000000
#04714:0053000053000000
#04713:00000053000000000000000000000000
#04712:00000000530000000053000000000000
#04417:53000053
#04418:00530000000000000000005300000000
#04419:0053000000530000
#0441a:00000053000000000053000000000000
#0441b:00535300
#04412:00530000
#04413:00000000005300000000000000000000
#04414:0000005300000000
#04415:00000000000000530000000000000000
#04416:0053
#04052:00630000
#0405a:44
#06952:0000000000140000
#0695a:0000000000140000
#00856:0000000000000063
#00857:53
#0105b:0063000000000000
#01058:00000000000000000000005300000000
#0135b:0000000000000063
#01355:00000000000000630000000000000000
#01158:00000000000000000000000000000053
#01558:00000000000000630000000000000000
#0155b:00000013
#01552:00000013
#01657:00000000000000630000000000000000
#01656:0000000000000053
#01857:0063000000000000
#0185b:0000000000530000
#02458:00000000230000000000005300000000
#02455:0063
#02452:0000000000000053
#0245b:63
#02655:23000000000000630000000000000000
#02658:00530000
#0265b:0000000000630000
#02552:00000063
#02558:0000005300000000
#03256:0063000000000000
#03252:0013
#0325b:0013
#04555:00530000
#06155:00530000
#06152:0023
#06158:00000063
#00957:00000000000000530000000000000000
#01452:0053
#01752:00000000000000530000000000000000
#0195b:00000053000000000000000000000000
#01958:00000000000000000000006300000000
#01955:00000000000000000000000000000063
#02056:00000000000000630000000000000000
#02155:00000000000000530000000000000000
#02158:0000000000000053
#0225b:00000023000000000000000000000000
#02255:0063
#02252:00000023
#02755:0063000000000000
#02757:00000053
#0285b:00630063
#02852:0053
#02856:63
#02857:00000000000000000000000000000023
#02957:00530000
#0295b:0000000000000023
#03158:00630000
#03155:0053
#03355:00530000
#03358:0063
#03452:0063000000001300
#03456:0053
#0345b:0053
#03457:00000013
#0355b:13530000
#03556:13
#03552:0063
#03655:00000053
#03656:0053000013000000
#0365b:0013
#03652:00230000
#03756:00630000
#03757:0053
#03752:00001353
#0375b:00130013
#03952:00360034
#03958:0046
#04255:0000000000530000
#04256:00130000
#04352:00630000
#0465b:53
#04652:00630000
#04656:0000000000530000
#04752:00000000000000000053000000000000
#04856:13
#0485b:13
#04855:00530000
#04858:0063
#05556:0063000000000000
#0555b:0063000000000000
#05552:00000000000000000000002300000000
#05557:13000000000000000000002300000000
#01256:00000000000000630000000000000000
#05756:0000000000230000
#05752:00530000
#05757:00530000
#0575b:0000000000230000
#05852:00530053
#0585b:0053
#05959:0000005300530053
#05957:00230023
#0595b:0023
#05954:0000005300530053
#05952:00230023
#05956:0023
#06059:0053005300530000
#0605b:2323
#06057:00230000
#06054:0053005300530000
#06056:2323
#06052:00230000
#0005b:0013000000000000
#00055:0013000000000000
#00058:00000013
#00052:00000013
#00155:0000001300000000
#0015b:0000001300000000
#00257:53
#04152:00000053
#03856:13
#04957:0053000000000000
#04952:0013
#0495b:0013
#05058:00630000
#05055:0053
#0515b:0053000000001300
#05157:0063
#05152:0063
#05156:00000013
#05358:00000063
#05357:0063000013000000
#05352:0013
#0535b:00230000
#05457:00530000
#05456:0063
#0545b:00001363
#05452:00130013
#05252:13630000
#0525b:0053
#05257:13
#002370:13
#0023b0:00333333333333332300000000000000
#008370:13
#0083b0:0023
#008360:0000000000000013
#009320:00230000
#009370:00000000000000130000000000000000
#0093b0:00000023
#0103b0:0013000000000000
#010370:0000002300000000
#010380:00000000000000000000001300000000
#0113b0:23
#011380:00000000000000000000000000000013
#0123b0:00000000000000230000000000000000
#012361:00000000000000130000000000000000
#012321:00000023
#013351:00000000000000130000000000000000
#013321:00000023
#0133b1:0000000000000013
#014371:00230000
#014321:0013
#014361:00000023
#015381:00000000000000130000000000000000
#0153b1:00000023
#016371:00000000000000130000000000000000
#0163b1:0000000000230000
#016361:0000000000000013
#017321:0023000000000000
#017321:00000000000000130000000000000000
#017361:00000023
#018371:0013000000000000
#0183b1:0000002300000000
#0183b1:0000000000130000
#019371:23
#0193b1:00000013000000000000000000000000
#019381:00000000002300000000000000000000
#019381:00000000000000000000001300000000
#0193b1:00000000000000000000000000230000
#019351:00000000000000000000000000000013
#020321:0023000000000000
#020361:00000000000000130000000000000000
#020321:00000023
#021351:00000000000000130000000000000000
#021321:00000023
#021381:0000000000000013
#0223b1:00000053000000000000000000000000
#022381:0023
#022350:0013
#022320:00000053
#023350:23
#0243b0:1323
#024380:00530000
#024351:0013
#024321:00000000000000000000002300000000
#024380:00000000000000000000001300000000
#0243b0:0000000000000023
#024321:0000000000000013
#025351:00230000
#025381:0000001300000000
#0253b1:00000023
#025320:00000013
#026350:53
#026320:00230000
#026381:00130000
#0263b1:00000000000000230000000000000000
#026350:00000000000000130000000000000000
#026320:0000000000230000
#0263b1:0000000000130000
#027381:23
#027351:0013000000000000
#027321:0023
#027371:00000013
#0283b1:23
#028360:13
#028320:00230000
#0283b1:00130000
#028371:0023
#028320:0013
#028360:00000023
#0283b1:00000013
#028371:00000000000000000000000000000053
#0293b1:0023000000000000
#029371:00130000
#0293b1:0000000000000053
#030371:0023
#031381:00130000
#0313b1:0000002300000000
#031351:0013
#031321:0000000000230000
#032361:0013000000000000
#032321:0000003323000000
#033351:00130000
#033321:0000002300000000
#033381:0013
#0333b1:0000000000230000
#034321:0013000000002300
#034361:0000003333000000
#0343b0:0013
#034370:00000023
#0353b0:00130000
#035370:0000002300000000
#035320:0013
#035360:0000000000230000
#036360:0013003323000000
#036320:00530000
#036350:00000013
#036320:0000000000000023
#037360:00130000
#037320:0023
#037371:0013
#0373b1:00000023
#037320:00000013
#038360:23
#040320:00130000
#040360:00000023
#041320:00000013
#042360:00230000
#042350:0000000000130000
#043320:23
#043320:00130000
#043350:0000002300000000
#045350:00130000
#045320:00000023
#0463b0:13
#046370:0023000000000000
#046320:00130000
#046360:0000002300000000
#046360:0000000000130000
#046320:00000023
#047320:00000000000000000013000000000000
#048360:23
#048350:00130000
#048320:0000002300000000
#048380:0013
#0483b0:0000000000230000
#049370:0013000000000000
#0493b0:0000003323000000
#050380:00130000
#0503b0:0000002300000000
#050350:0013
#050320:0000000000230000
#0513b0:0013000000002300
#051370:0000003333000000
#051321:0013
#051361:00000023
#052321:00130000
#052361:0000002300000000
#0523b1:0013
#052371:0000000000230000
#053371:0013003323000000
#0533b1:00530000
#053381:00000013
#0533b1:0000000000000023
#054371:00130000
#0543b1:0023
#054360:0013
#054320:00000023
#0543b1:00000013
#055371:23
#055361:0013000000000000
#055321:00000000000000000000005300000000
#056361:00230000
#0553b0:0013000000000000
#055370:00000000000000000000005300000000
#0563b0:00230000
#057320:00130000
#057360:0000000000530000
#058320:23
#057371:00130000
#0573b1:0000000000530000
#058371:23
#058321:00130000
#058361:0023
#0583b0:0013
#058370:00000023
#058321:00000013
#059361:23
#059371:00130053
#059391:0000005300530053
#0593b1:0053
#0603b1:5353
#060391:0053005300530000
#060371:00530023
#059320:00130053
#059340:0000005300530053
#059360:0053
#060360:5353
#060340:0053005300530000
#060320:00530023
#061350:00130023
#061320:0053
#061381:00000013
#0623b1:23
#007960:0000000000000013
#008920:23
#0119b0:00001323
#011970:0000000000530000
#011921:00000013
#011951:0000000000000000000000000000000000000000000000000000005300002300
#0409b1:00000012
#040991:0000000000000052
#0419b1:52
#041991:0022000000000000
#0439b1:00000013
#044971:53
#0449b1:00230000
#044920:00130000
#044960:0023
#0449b1:0013
#044971:00000023
#046971:00000013
#0479b1:23
#047960:13
#047920:00230000
#0479b1:00130000
#047971:0023
#047940:0013
#047920:00000000000000000023000000000000
#0669b0:0013
#066980:0000000000230000
#0699b0:00130000
#069970:0000002300000000
#069921:0000001300000000
#069961:000000000000000000000023000000000000000000000000
