This file was generated by Ched 2.7.0.0.
#TITLE ""
#ARTIST ""
#DESIGNER ""
#DIFFICULTY 0
#PLAYLEVEL
#SONGID ""
#WAVE ""
#WAVEOFFSET 0
#JACKET ""
#REQUEST "ticks_per_beat 480"
#00002: 4
#BPM01: 138
#00008: 01
#TIL00: ""
#VOLUME: ""
#HISPEED 00
#MEASUREHS 00
#04012:001c0013
#04017:00000000000000000000000000130000
#04019:00000000000000000000000000000013
#04014:0000000000000013
#04015:001300130013000000000000000000000000000000000000
#04018:261313000000000000000000
#00816:0000000012000012
#0081c:0000000000000012
#00818:12
#00810:41
#00916:00000012
#00918:00000000121200120000000000001200
#00912:00000000000000120000000000001200
#01012:0012000012000000
#0101c:00000000000012000000001200000000
#01018:00001200000000000012000000000000
#01016:00000000000000000000001200000000
#0111c:12000000001200000000000012000000
#01115:0000120000000000000000001200000000000052005200000000000000000000
#01119:0000000012000000000000000000120000000000000000000000005200520000
#01112:00000012000000001200000052000000
#01116:00000000000000000000520000000012
#01113:0000000000000000000000000000000000520000000000520000000000000000
#01114:00000000000000000052005200000000
#0111b:0000000000000000000000000000000000000000000000000052000000000000
#0111a:00000000000000000000000000520052
#01118:0000000000000052
#01312:12001200000000120000000012001200
#0131c:12001200000000120000000000000000
#01317:00000000000000000000000000120000
#01316:00120000
#01318:00000000001200000000000000000000
#01516:130000000000000000000000000000000012000000000012
#01517:0013000000000000
#01512:0013000013000000
#01518:000000130000000012000012
#01515:00000000001300000000120000001200
#0151b:00000000000000130013000000000000
#01519:00000012
#01616:00000000000000130000000000000000
#0161b:13000000131300130000000000001300
#01612:0013000000000013
#01618:00000000000000000000131300000000
#01615:00000013
#01718:00130000
#0171b:0000000000131300
#01717:00000000000000130000000000001300
#01712:00001300000000130000000000001300
#01715:00000000001300000000000000000000
#01716:13
#01816:0013000000001300
#01815:0013
#0181b:0013000000130000
#01817:0000001300000013
#01818:00000000000000000013000000000000
#01819:00130000
#01812:0000000000130000
#0251b:00000000001300000000000013000000
#02512:0000130000000013
#02516:0000001300000000
#02518:0000000000130000
#02515:00000000000000000000001313000000
#02416:00000000130000000000001300000000
#0241b:0013000000000013
#0241a:00130000
#02419:0000001300000000
#02418:0013
#02412:13
#02415:29
#02617:13000000000000130000000000000000
#02613:13
#02614:0013000000000000
#02615:00130000
#02612:0000000000130000
#04318:0012000012120000
#04312:12
#04316:00000012000012000012000000000000
#0431c:00120000
#04314:0000120000000052
#0441c:00000000001200000000000000000000
#04412:0052000000520000
#04414:0000005200000052
#04512:12120000
#04515:00120000000000000000000000000000
#0451b:00000012000000000000000000000000
#0451c:0000000000120000
#04518:0012000000000012
#04516:00000000000000000000000000000012
#00212:13000000001300001300000023000000
#00215:00001300000000000013000000130000
#00218:000000130000000000130000000000000000120000001200000000000000130000000000000000000000130000000000
#0021b:13000000130000000000001300000013
#00216:000000000012000000000000
#00317:00130000000000000000000000130000
#00318:00000000000000130000000000000000
#00315:0013
#00312:00130000001300000013000000130000
#00316:00000013000000000000001300000000
#0031b:00000013000023000000001300000013
#00712:00130000130000000000000000000013
#00717:00130000001300000000000000000000
#00714:0000001300000000
#00719:00000000000000130000000000000000
#00716:000000000000000000000000130000120012000000000000
#0071b:00000013000000000013000013000000
#00718:000000000000000000000000000000000000000000000000000000000000000012000000000000130000000000000000
#00715:0000000000000013
#0141b:0013
#01418:00000013000000000000000000000000
#01415:00000014
#0141c:1212121200000000
#01412:0000000000121212
#0191b:13000000001300001300000000000013
#01918:00130000000000000013000000001300
#01915:00001300000000000000130000130000
#01912:00000013000000000000001300000000
#01916:00000000000013000000000000000013
#01910:41
#02015:00130000
#02018:00000000001300000000000000000000
#02012:00000000000000130000000000000000
#0201b:00000000000000130000130013000000
#02017:0000000013000000000000000000000000000013000000000000000000000000
#02112:14001400000000140000001300001300
#02115:00000000001300000000000013000000
#02118:00000000130000000000000000130000
#0211a:14001400000000140000000000000000
#0221b:00131300
#02217:00130000000000000000130000000000
#02212:00000013
#02218:000000000000000000130000000000000000000000001200
#02215:00000000000000130000000000000000
#02216:000000000000000000000000000000000000000000120012
#02318:001500000000001500000000
#02317:001500001500
#02313:000015000015
#02314:000000000015000000000015
#02319:2525
#02312:00250025
#02712:00130000160000130000000013000000
#0271b:1300000000000013
#02718:00001300001300002600000000000000
#02715:0000001300000000
#02717:00000013
#02710:0041
#03015:0000000000001313
#03018:00000000000000000000000000130000
#03012:00000000000000000000000000000013
#0301b:00000000000000000000000000000013
#04216:00005200000000000012000000000000
#0421c:0000000000120000
#04217:0000005200000000000000000000000000000000000000000000120000000000
#04218:00520000120000001200000000000000
#0421a:52
#04219:0052000000000000000000000000000000000000000000000000000000000000
#04215:0000000000520000000000000000000000000000000000000000000000000000
#04214:00000052000000000000000000000000
#04213:0000000000000052000000000000000000000000000000000000000000000000
#04212:00520000
#0461c:1200001200001200
#04612:0012120000000000
#04617:00120000
#04616:00000000000000001200120000000052
#04618:00000000000000000012000000005200
#0461a:00000000000000000000000000520000
#05612:0013000014001400
#0561a:00000000000000001400141400000014
#05616:0000001300000000
#05618:13000000000000000000000000140000
#05614:0000000000000014
#05615:00130000000000000000000000000000
#0621a:001400
#06216:000000130000000000001400000000000000000000000000
#06217:000000000000001212000000
#06218:000000000016
#06215:000000000000000000000016
#06214:1300000000120000
#06219:13
#0621b:0013000000000000
#06212:00232425
#00415:00130000000000000000000000000000
#00418:0013000000000000
#0041b:00000013000000130000130000001300
#00417:00000000001300000000000013000000
#00412:23000000001300000013000000000013
#00416:00000000000000130000000000000000
#00414:00000000000000000000001300130000
#00518:120000001200000000000000130000000000000000130000000000000000000000000000000000000000000000000000
#00516:000012000000000000000000000000000000000000000000000000000000000000130000000000000000000000000000
#00512:00001300001300000013000000130000
#00515:00000013000000001300000000000000
#0051b:00000000000023000000001300000013
#00517:00000000000000000000000000130000
#01218:00001200001200120000000000000000
#01216:00120000
#01212:00000000000000120000000000000000
#0121c:00000012
#03116:00130013
#0311b:00130000230000000000131300001300
#03112:00130000000000001300000000000000
#03117:00000000000013130000000000000000
#03215:0000001300000000
#03218:00000000000013000000000000000013
#03212:13000013
#0321b:0013000000001313
#03317:00220013
#03316:0000000000000013
#03315:1319000000000000
#03312:00130000130000005300131300000000
#0331a:00000000000000140000000000000000
#03314:0000001300000000
#03313:00000000000000530000000000000000
#03417:1300230000130000
#03416:00001300000000130000000000000000
#0341b:0000001300002300
#03419:0013
#03414:00000000000000000013000000000000
#03412:00000000130000000000001300001313
#03516:001200000000000000000000130000000000000000000000
#03518:001200000000000000000000
#03514:0012000000000000
#0351b:00000000230013130000000000000000
#03512:0000130000001313
#03517:00000000000000000000001313000000
#0351a:22
#03510:00410000
#0361b:13000013
#03618:0000001300000000
#03615:00000000000013000000000000000013
#03612:0013000000001313
#03716:0016
#03714:00000016
#03712:0019000000000000
#0371b:00130000000000000000000000000000
#03718:13260000
#03812:1626
#03816:000016001616
#03814:000000000016001600000016
#03818:00260026
#03912:261300
#03915:000000000013000000000000
#03913:000000000000001300000000
#03916:001600001300
#03914:001600000000000000001300
#03917:000000000000000000000013
#03918:00262626
#04116:1300000000000052
#0411b:00130000000000000000000000000000
#0411f:00110000
#04115:0000000053000000000000000000000000000000000000000000005200000000
#04114:000000000000000053000000000000000000000000000000000000000000000000000000000000520000000000000000
#04113:000000000000000000000000000000000000000053000000000000000000000000000000000000000000000000000000000000000000000000000000000000000000000000000000000000520000000000000000000000000000000000000000
#04112:00530052
#04117:0000000000000000000000000000000000000000000000000000000000520000
#04118:00000000000000000000000000000052
#04119:0000000000000000000000000000000000000000000000000000000000000052
#04715:00000000000000000000000000130000
#04718:0052520052000013
#04712:00000013
#0471b:00000000000000000000000000000013
#04714:5200005200000000
#04716:00520000005200520000000000000000
#0471a:00000052000000000052000000000000
#04815:0000001300130000
#04817:00130000
#04818:00000000000000130000000000000000
#0481b:0013000013001300
#04812:130000003333230000000000130000000000130000130000
#0481f:00210000
#04912:0000000013000000000000000000000000000000000000000053000000000000
#0491b:1300001313001313
#04918:00000000000000000000000000000013
#04910:0041
#04914:00000000000000000000000000000000000000000000000000000000000000000000000000000000000000000000000000530000000000000000000000000000
#04916:00000053
#05012:00001600000000140000000000000000
#05015:13
#05018:00130000000000000000000000000000
#0501b:00000000130000005300131300000000
#05016:00000013
#05017:0000220000000013
#05019:0000001300000000
#0501a:00000000000000530000000000000000
#05716:14
#05718:00001300000000000000001300000000
#05715:00000013000000000000130000000019
#05712:0000131313001900
#05717:0000001300000000
#0571b:0000130000000013
#05815:00130000000000130000130000000013
#05818:00001300000013002600001300001300
#0581b:00000013001300000000000000000000
#05812:00000000260000000013000026000000
#05918:120000001200000000000000000000000000000000000000000000000000000000130000000000000000000000130000
#05916:001200120000000000130000000000000000000000000000
#05912:00130019
#05915:0000000000130000
#0591b:0000231313000013
#05910:00410000
#06018:00130000000000000000000000001300
#06015:13000000000016000000160000130000
#0601b:00000000000000000000000013000013
#06012:0016000000000000
#06112:13000013000014001800000000001300
#06118:00130000000000000000000000000000
#06115:0013000000000000
#0611a:0000000000140000
#06116:00000000000000140000001418000000
#06117:0000000000000013
#0611b:00230000
#0631a:001212001400000000000000
#06318:000000000014000000001400
#06317:000000120000000000000000000000001400000000000000
#06319:000000000000001400000000
#06316:000000000000000000000014
#06312:262c2c2c
#06415:00000000001300000000000000000000
#06418:00000000000013000000000000000013
#0641b:00000000000000130000001300002300
#06417:00000000000000000013000000000000
#06412:2c000000230000130013000000160000
#06416:00000000000000000000001300000000
#06515:13000000000000000013000000000000
#06512:00130000001300002300001300130000
#0651b:00130013000000000000001300000013
#06516:00000013000000000000000000000013
#06517:00000000001300000000000000130000
#06518:00000000000000160000130000000000
#06618:000000000000000000000000000000000000000000000000000000000012000000000000130000000000000000130000
#06612:00130013000000130000000000002300
#06615:00000000000000000000000000130000
#0661b:00001300000000001300001300002300
#06619:0000131300000000
#06616:000000000000000000000000000000130000000000000000000000120000001200000000000000000000000000000000
#06617:00130000000000000000000000000000
#06715:13000000000000290013000000000000
#06718:0000000000130000
#06712:00230000000000002300002300250027
#0671b:00230000000000000000002300000000
#06719:00000025000000000000000000000000
#06717:00000000002700000000000000000000
#06812:00290000002300000000000013130000
#0681b:00002300002300000000000000001313
#06818:00000013000000000000000000000000
#06815:00000000130000000000002900000000
#06819:00000000000000250000000000000000
#06817:00000000000000000027000000000000
#06915:13130013000000000000000000000000
#06918:000000130000000000120012000000260000000000000000
#0691b:00130000
#06912:00000000001300000000260000000000
#06916:000000000012000000000000
#00018:00000012000000000000000000120000
#00015:0000120000000012
#00012:00000000001200000000000000000012
#00014:00000000000000120000000000000000
#00019:00000000000000000012000000000000
#00016:00000000000000000000001200000000
#0001b:0012000000001200
#00114:00120000000000000000001200000000
#00119:00000012000000000000000000120000
#00116:00000000001200000000000000000012
#00118:00000000000000120000000000000000
#00115:0012
#00112:00000000000000000012000000000000
#0011b:0000001200000000
#0281b:1300001313000000
#02812:0013130000131300
#0291b:0013130000000000
#02912:0000000000000013
#05116:1300230000130000
#05117:00001300000000130000000000000000
#05112:0000001300002400
#05114:0013
#05119:00000000000000000013000000000000
#0511b:00000000130000000000001300001313
#05218:001200000000000000130000000000130000000000000000
#05216:001200130000000000000000
#0521a:0012000000000000
#05215:00000000000000130000001300000000
#05212:00001313
#0521b:0000230013001313
#05214:22
#0531b:0000000013000000000000000000000000000000000000000053000000000000
#05312:1300001313001313
#05315:00000000000000000000000000000013
#05319:00000000000000000000000000000000000000000000000000000000000000000000000000000000000000000000000000530000000000000000000000000000
#05317:00000053
#0551a:00140000
#05512:00000000140000000000130000130000
#05518:16000000000013000000000000130000
#05515:00000000000000131900001900000000
#0551b:00000000000000000000000000000013
#05418:1316000000000000
#05415:00130000000000000000000000000000
#05414:0016
#05416:00000016
#05412:00260000
#00615:00130000000000000000000013000000
#00618:00001300000000000000001300000000
#0061b:00000013000000130000230000000013
#00617:00000000001300000000000000000000
#00612:23000000001300000013000000130000
#00616:00000000000000130000000000000013
#04052:006c0000
#00856:0000000000000062
#00858:52
#01052:0052000000000000
#01056:00000000000000000000006200000000
#01352:0000000000000052
#0135c:00000000000000520000000000000000
#01656:00000000000000530000000000000000
#0165b:6300000000000063
#01652:0063000000000000
#01856:0053000000002300
#01852:0000000000530000
#02456:00000000230000000000006300000000
#02458:0053
#0245b:0000000000000063
#02452:53
#02455:19
#02657:23000000000000530000000000000000
#02655:00630000
#02652:0000000000530000
#0255b:00000053
#02556:0000006300000000
#04358:0000000000520000
#0435c:00520000
#04356:0000005200000000
#0445c:00000000002200000000000000000000
#04552:00520000
#00958:00000000000000520000000000000000
#0145b:0063
#01458:00000023000000000000000000000000
#01455:00000024
#01752:00000000000000530000000000000000
#01756:23
#01952:00000063000000000000000000000000
#01956:00000000000053000000000000000063
#02052:00000000000000630000000000000000
#02057:0000000053000000000000000000000000000023000000000000000000000000
#02152:0000000000000063
#0215a:00000000000000540000000000000000
#02257:00230000000000000000230000000000
#0225b:0053
#02758:0053000000000000
#02752:00000063
#0425c:0000000000620000
#04252:00320000
#04257:00000000000000000000000000220000
#0465c:52
#04652:00620000
#04656:0000000000620000
#06252:00333435
#06352:363c3c3c
#01156:00000000000000000000000000000052
#01252:00000000000000520000000000000000
#03156:00530063
#0315b:0000130000000053
#03152:0063
#03357:00620063
#03356:0000000000000053
#0335a:00000000000000240000000000000000
#03457:63
#03452:00230000
#03456:0053000000000000
#0345b:00000013
#03552:0000530000000063
#03556:0063
#03557:00000053
#0365b:53001363
#03658:0000005300000000
#03655:0000006300000000
#03652:0063000013000000
#04952:0000000063000000000000000000000000000000000000000063000000000000
#0495b:5313
#04957:0013
#04857:00630000
#0485b:00005353
#04852:0000330000000063
#05757:0000002300000000
#0575b:00530000
#05756:14
#05956:0000002300000000
#05952:00630000
#06958:0000000000460000
#06952:0000000000360000
#05852:00360036
#05858:0046
#03252:63001353
#0325b:0053000013000000
#03255:0000006300000000
#03258:0000005300000000
#0285b:5353
#02852:00630053
#0295b:00530000
#02952:0000000000000023
#03958:00464646
#03952:16
#05056:00000053
#05057:0000520000000063
#05052:00000000000000240000000000000000
#05156:53
#05157:0063000000000000
#0515b:00230000
#05152:00000014
#0535b:0000000053000000000000000000000000000000000000000053000000000000
#05352:6313
#05356:0013
#05256:00530000
#05252:00006363
#0525b:0000000000000053
#05652:0053000000000000
#06452:3c
#0475a:00000000000000000052000000000000
#06055:0000003600460000
#03858:00160016
#03852:4616
#03758:00460000
#03756:0046
#03754:00000046
#05454:0046
#05456:00000046
#05452:00460000
#05558:46
#0675b:00430000000000000000000000000000
#06759:00000045000000000000000000000000
#06757:00000000004700000000000000000000
#06755:00000000000000490000000000000000
#06752:00000000000000000000003300350037
#06852:00390000000000000000000000000000
#0685b:00000000004300000000000000000000
#06859:00000000000000450000000000000000
#06857:00000000000000000047000000000000
#06855:00000000000000000000004900000000
#008380:12
#0083c0:0022
#008360:0000000000000012
#009320:00220000
#009380:00000000000000120000000000000000
#0093c0:00000022
#010320:0012000000000000
#010360:0000002200000000
#010360:00000000000000000000001200000000
#011320:22
#011360:00000000000000000000000000000012
#012320:0022000000000000
#012320:00000000000000120000000000000000
#012360:00000022
#0133c0:00000000000000120000000000000000
#013370:00000022
#013320:0000000000000012
#014380:00000053000000000000000000000000
#014320:0022
#0143b1:0013
#014351:00000054
#0153b1:23
#0163b1:13
#016371:0023000000000000
#016320:0013000000000000
#016360:00230000
#016360:00000000000000130000000000000000
#016320:0000000000230000
#0163b0:0000000000000013
#017360:53
#0173b0:0023000000000000
#017320:00000000000000130000000000000000
#017360:00000023
#018360:0013000000000000
#018320:0000002300000000
#018320:0000000000130023
#018360:00000053
#019320:00000013000000000000000000000000
#019360:00000000002300000000000000000000
#019360:0000001300000000
#019320:0023
#019360:00000000000000000000000000000013
#020320:0023000000000000
#020371:0013000000000000
#0203b1:00230000
#020321:00000000000000130000000023000000
#020371:0000000000000000000000000000000000000053000000000000000000000000
#0213a1:00000000000000140000000000000000
#021361:00000000000000000000002400000000
#021321:0000000000000013
#022371:00530000000000000000000000000000
#022321:00230000
#0223b1:00001323
#022371:0000000000530000
#024321:1323
#024361:00530000
#024380:0013
#0243b0:00000000000000000000002300000000
#024361:00000000000000000000001300000000
#024321:0000000000000023
#0243b0:0000000000000013
#025370:00230000
#025360:0000001300000000
#025320:0000000000230000
#0253b0:00000013
#026370:53
#0263b0:00230000
#026351:00130000
#026321:00000000000000230000000000000000
#026370:00000000000000130000000000000000
#0263b0:0000000000230000
#026321:0000000000130000
#027361:23
#027381:0013000000000000
#0273b1:00230000
#027321:00000013
#028371:23
#0283b0:13
#028360:00230000
#028321:00130000
#028371:0023
#0283b0:0013
#028360:00000023
#028321:00000013
#029361:0034340000000000
#030361:0024
#0293b0:00130000
#029320:0000000000000053
#0303b0:0023
#031360:00130000
#031320:0000002300000000
#031320:0013
#031360:0000000000230000
#031360:00000013
#031320:0000000000000023
#0313b1:0000000000000013
#032371:23
#032320:13
#032360:0023000000000000
#0323b1:0013000023000000
#032381:0000003300000000
#032350:0000001300000000
#032320:0023
#032320:00000013
#032360:0000000000000024
#033370:0000120000220000
#0333a0:00000000000000340000000000000000
#033370:00000013
#0333b0:0000000000000023
#033361:0000000000000013
#034321:23
#034370:13
#0343b0:0023000000000000
#034361:0013002300000000
#034321:00530000
#035321:00130000
#035361:0000002300000000
#035361:0013
#035321:00000000000000000000002300000000
#035371:00000013
#0353b1:0000000000000023
#035320:0000000000000013
#036360:23
#0363b1:13
#036371:0023000000000000
#036320:0013000023000000
#036350:0000003300000000
#036381:0000001300000000
#0363b1:0023
#0363b1:00000013
#036381:0000000000000023
#040321:001c0000
#0403b1:00000023
#0423c1:0000000000120000
#042371:00000000000000000000000000520000
#0433c1:22
#0433c1:00120000
#043381:0000002200000000
#043360:0000001200000000
#043320:0022
#043380:0000000000120000
#0443c0:00000000005200000000000000000000
#045380:22
#045320:00120000
#045370:0000000000220000
#0463c0:12
#046370:0022000000000000
#046320:00120000
#046370:0000002200000000
#046360:0000000000120000
#046320:00000022
#0473a0:00000000000000000012000000000000
#047370:00000022
#048360:0013000000000000
#048320:000000003333230000000000000000000000000000000000
#048371:00130000
#0483b1:0000002300000000
#0483b1:0013
#048381:0000000000230000
#0483b1:00000013
#048371:0000000000000023
#048320:0000000000000013
#049360:23
#0493b1:13
#049371:0023000000000000
#049320:0013000000000000
#049370:0000003323000000
#049320:0000000000000000000000000000000000000000000000000013000000000000
#049360:0000000000000023
#050370:0000120000220000
#050320:00000000000000340000000000000000
#050360:00000013
#050320:0000000000000023
#050371:0000000000000013
#0513b1:23
#051360:13
#051320:0023000000000000
#051371:0013002300000000
#0513b1:00530000
#052361:00130000
#052321:0000002300000000
#052321:0013
#052351:0000000000230000
#052321:00000013
#052361:0000000000000023
#0523b0:0000000000000013
#053370:23
#053321:13
#053361:0023000000000000
#0533b0:0013000000000000
#053360:0000003323000000
#0533b0:0000000000000000000000000000000000000000000000000013000000000000
#053370:0000000000000023
#056320:0013000000000000
#056360:00230000
#0563b1:0000132300000000
#0573b1:00132300
#057371:0000005300000000
#059321:00132300
#059361:0000005300000000
#0603b1:0000132300000000
#060321:0000000013230000
#011920:00001222
#011960:0000000000520000
#0119c1:00000012
#011981:0000000000000052
#0119a1:00000000000000000000000000000022
#033941:0000001300000000
#033921:0023
#041951:0013000000000000
#041921:00230000
#041921:00000012
#0429a1:52
#042921:00220000
#0469c1:00000012
#047941:5200005200000000
#0479a1:00000052000000000022000000000000
#050991:0000001300000000
#0509b1:0023
