This file was generated by Ched 2.7.0.0.
#TITLE ""
#ARTIST ""
#DESIGNER ""
#DIFFICULTY 0
#PLAYLEVEL
#SONGID ""
#WAVE ""
#WAVEOFFSET 0
#JACKET ""
#REQUEST "ticks_per_beat 480"
#00002: 4
#BPM01: 138
#00008: 01
#TIL00: ""
#VOLUME: ""
#HISPEED 00
#MEASUREHS 00
#00412:14
#00418:0000000000000034
#01518:1414
#01514:00140000
#01918:14
#01912:14000000000000000000000000000014
#01914:0014
#0191a:0014
#01910:41
#0211a:14
#02112:00140000
#02118:0014
#02114:0000000000000014
#0431a:00000014
#0651a:0014
#00318:0000001400000000
#00714:00140014
#00718:0014
#01018:0014
#01014:0014000000000000
#01618:00140000
#01612:1414
#0161a:0000000000000014
#03114:0014
#0311a:00240014
#03214:14
#03218:00140014
#03212:0014
#03312:14
#0331a:00140014
#03314:0014
#03414:14
#03418:00140000
#03518:0014
#03512:00140014
#03510:00410000
#03618:14
#03614:00140014
#0361a:0014
#0371a:14
#03712:00240000
#03718:0024
#03714:00000024
#03818:00000014
#0381a:24
#03812:00240000
#04014:00140000
#04514:00140000
#04618:00000014
#04818:0014
#04814:00000014
#04812:00240000
#0481f:00210000
#0491a:14
#04912:00140000
#04918:0014
#04914:00000014
#04910:0041
#0501a:14
#05012:00140000
#05018:0014
#05014:00000014
#0511a:14
#05114:00140000
#05214:0014
#05218:00000014
#0521a:00140000
#05312:14
#0531a:00140000
#05314:0014
#05318:00000014
#05412:14
#0541a:00240000
#05414:0024
#05418:00000024
#05614:00000014
#05718:14
#05818:00000014
#05914:14
#05910:00410000
#06014:00000014
#06118:14
#06218:00140014
#06214:0014
#06314:14
#0631a:00240024
#06312:0024
#06412:2400000000000014
#0641a:00240000
#06614:0014000000140000
#06618:0000001400000000
#0661a:0000000000000024
#00614:14
#0061a:0000000000140000
#01112:14
#0111a:00000000000000001434343434343400
#01812:0014000000000000
#02018:0014
#02014:00000014
#02418:14
#0241a:0014
#02514:00000014
#02612:00140000
#02718:0014
#02710:0041
#0281a:14
#03914:00140000
#0391a:00000014
#0411f:00110000
#00012:0026000000000000
#00018:00000026
#00212:00000024
#00218:26
#00112:0000002600000000
#02318:26260000
#02312:00002626
#04212:00240000
#0691a:0000000000240000
#06912:0000000000240000
#06712:0024
#0681a:0024000000000000
#03012:00000024
#0301a:00000024
#05512:24
#05518:00240000
#00518:0034000000000000
#00810:41
#03858:00000014
#03852:00140000
#04054:00540000
#0645a:00140000
#0665a:0000000000000014
#06752:0014
#0685a:0014000000000000
#0695a:0000000000140000
#06952:0000000000140000
#0165a:0000000000000054
#01854:0014
#01852:0054000000000000
#01952:00000000000000000000000000000054
#02154:0000000000000054
#02458:54
#0245a:0024
#02554:00000064
#02652:00240000
#02758:0054
#0285a:24
#03458:00540000
#0355a:14
#03954:00140000
#0395a:00000014
#05154:00640000
#05252:14
#0115a:0054
#0043a0:0000000000140000
#004380:0000000000000034
#005380:0034002400000000
#008380:14
#0083a0:0000000034000034
#009380:00000000000000240000000000000000
#0113a0:00000000000000001434343434343400
#011380:00000000000000000000000000000034
#0123a0:0024
#013340:14
#013320:0000000034000034
#014340:0024
#0163a0:0000000000000014
#017380:00000000340000340000000024000000
#018320:0014000000000000
#018340:0024
#019320:00000000000000000000000000000014
#020340:00240000
#021340:00000000000000000000000014343400
#022320:0024
#024380:14
#0243a0:0054
#025380:24
#025340:00000014
#026320:00540000
#026340:00000024
#027380:0014
#0283a0:54
#028380:0024
#029320:00140000
#030340:00240000
#034380:00140000
#0343a0:00000034
#0353a0:24
#040340:00140000
#041320:00240000
#042320:0000000000140000
#043340:00240000
#0443a0:0014000000000000
#044380:00000024
#045340:0000000000140000
#046320:00240000
#047380:0014000000000000
#0473a0:00000024
#051340:00140000
#051320:00000034
#052320:24
#055380:00140000
#0563a0:00240000
#057340:00140000
#058320:00240000
#059380:00140000
#0603a0:00240000
#061340:00140000
#061320:00000024
