This file was generated by Ched 2.7.0.0.
#TITLE ""
#ARTIST ""
#DESIGNER ""
#DIFFICULTY 0
#PLAYLEVEL
#SONGID ""
#WAVE ""
#WAVEOFFSET 0
#JACKET ""
#REQUEST "ticks_per_beat 480"
#00002: 4
#BPM01: 105
#00008: 01
#TIL00: "55'1439:10000.0"
#VOLUME: ""
#HISPEED 00
#MEASUREHS 00
#0011a:14
#00312:14
#0021a:14
#00412:14
#00514:0014
#0051a:24
#00510:41
#0061a:14
#00614:0014
#00718:14
#00712:0014
#00818:14
#00812:0014
#01712:0016
#01718:26
#01818:1616
#01912:16
#01918:0016
#02012:1616
#02118:16
#02112:0016
#02110:41
#02218:16
#02212:0016
#02618:00160000
#02612:2626
#02512:00160000
#02518:2626
#0271a:14
#02714:0014
#0281a:14
#02814:0014
#02918:14
#02912:0014
#03018:14
#03012:0014
#03818:1616
#03812:00160016
#03912:0016
#03918:26
#0391f:21
#03910:0041
#04112:16
#04118:0016
#04318:1616
#04412:1616
#04518:16
#04512:0016
#04618:16
#04612:0016
#04918:16
#04912:0016
#05018:1616
#05012:00160000
#05312:16
#05318:0016
#0331f:11
#03712:26
#03110:41
#04810:41
#01310:41
#0093a0:14
#0103a0:24
#011320:14
#012320:24
#013380:14
#0143a0:24
#015340:14
#016320:24
#023380:1626
#024320:1626
#0313a0:14
#031380:0034
#032380:34
#0323a0:0024
#033340:14
#033320:0034
#034320:34
#034340:0024
#035380:14
#0353a0:0034
#0363a0:34
#036380:0024
#040380:1626
#042320:1626
#047380:1626
#048320:1626
#051320:1626
#052380:1626
#054340:1434
#055340:24
#0559d0:000000000000000000000000000000000000000000000000000000000000000000000000000000000000000000000000000000000000000000000000000000000000000000000000000000000000000000000000000000000000000000000000000000000000000000000000000000000000000000000000000000000000000000000000000000000000000000000000000000000000000000000000000000000000000000000000000000000000000000000000000000000000000000000000000000000000000000000000000000000000000000000000000000000000000000000000000000000000000000000000000000000000000000000000000000000000000000000000000000000000000000000000000000000000000000000000000000000000000000000000000000000000000000000000000000000000000000000000000000000000000000000000000000000000000000000000000000000000000000000000000000000000000000000000000000000000000000000000000000000000000000000000000000000000000000000000000000000000000000000000000000000000000000000000000000000000000000000000000000000000000000000000000000000000000000000000000000000000000000000000000000000000000000000000000000000000000000000000000000000000000000000000000000000000000000000000000000000000000000000000000000000000000000000000000000000000000000000000000000000000000000000000000000000000000000000000000000000000000000000000000000000000000000000000000000000000000000000000000000000000000000000000000000000000000000000000000000000000000000000000000000000000000000000000000000000000000000000000000000000000000000000000000000000000000000000000000000000000000000000000000000000000000000000000000000000000000000000000000000000000000000000000000000000000000000000000000000000000000000000000000000000000000000000000000000000000000000000000000000000000000000000000000000000000000000000000000000000000000000000000000000000000000000000000000000000000000000000000000000000000000000000000000000000000000000000000000000000000000000000000000000000000000000000000000000000000000000000000000000000000000000000000000000000000000000000000000000000000000000000000000000000000000000000000000000000000000000000000000000000000000000000000000000000000000000000000000000000000000000000000000000000000000000000000000000000000000000000000000000000000000000000000000000000000000000000000000000000000000000000000000000000000000000000000000000000000000000000000000000000000000000000000000000000000000000000000000000000000000000000000000000000000000000000000000000000000000000000000000000000000000000000000000000000000000000000000000000000000000000000000000000000000000000000000000000000000000000000000000000000000000000000000000000000000000000000000000000000000000000000000000000000000000000000000000000000000000000000000000000000000000000000000000000000000000000000000000000000000000000000000000000000000000000000000000000000000000000000000000000000000000000000000000000000000000000000000000000000000000000000000000000000000000000000000000000000000000000000000000000000000000000000000000000000000000000000000000000000000000000000000112100000000000000000000000000000000000000000000000000000000000000000000000000000000000000000000000000000000000000000000000000000000000000000000000000000000000000000000000000000000000000000000000000000000000000000000000000000000000000000000000000000000000000000000000000000000000000000000000000000000000000000000000000000000000000000000000000000000000000000000000000000000000000000000000000000000000000000000000000000000000000000000000000000000000000000000000000000000000000000000000000000000000000000000000000000000000000000000000000000000000000000000000000000000000000000000000000000000000000000000000000000000000000000000000000000000000000000000000000000000000000000000000000000000000000000000000000000000000000000000000000000000000000000000000000000000000000000000000000000000000000000000000000000000000000000000000000000000000000000000000000000000000000000000000000000000000000000000000000000000000000000000000000000000000000000000000000000000000000000000
