This file was generated by Ched 2.7.0.0.
#TITLE ""
#ARTIST ""
#DESIGNER ""
#DIFFICULTY 0
#PLAYLEVEL
#SONGID ""
#WAVE ""
#WAVEOFFSET 0
#JACKET ""
#REQUEST "ticks_per_beat 480"
#00002: 4
#BPM01: 140
#00008: 01
#TIL00: ""
#VOLUME: ""
#HISPEED 00
#MEASUREHS 00
#00219:000000000000000013130000
#00212:13131300
#00216:00000013
#0021b:13131300
#00218:001300000013000000000000
#00215:001313000000
#00412:13001313
#0041b:00131313
#00415:001300000013000000000000
#00418:001313000000
#01217:1313
#01216:000013130000000013130000
#01212:130000000013130000000000
#0121b:00130000
#0181b:130000130000000013130000
#01817:0013001300000000
#01812:17151700
#01816:000000000000000013130000
#02516:000000000016000000001600
#02518:260016000000000000160000
#02512:140000160000260016000000
#02514:000000001600000000000016
#03912:130000130000130013130000
#0391b:130013130000130000130000
#03915:000000000013000000001300
#03918:000000001300000000000013
#0391f:11
#0011b:23131313
#00114:000000000000000000000013
#00112:13130000
#00115:001300000013000000000000
#00118:001313000000
#00512:000014000000000000141414
#0051a:000000141414000014000000
#00516:2224
#00518:22
#00816:240000001400000000000014
#00812:000014000014240000000000
#0081a:00142400
#01116:000000000000000000000014
#01112:13141316
#0111a:1414
#01115:001300000013001300000000
#01118:001313001300
#0111b:00130000
#01617:13
#01612:001300130000
#0161b:00131300
#01618:001300
#01615:000000000013000000000000
#0171b:00130000
#01712:260000160013130000130000
#01718:001400000000000000000000
#01716:001400000000
#0171a:14
#01717:00000013
#01710:41
#01916:000000130000000013130014
#01917:000000000013130000000000
#01912:18
#0191b:00130000
#02016:0000000014130000
#0201a:0000000000140000
#02012:13131300
#02019:0013001300000000
#02618:261600260000
#02612:00260026
#02614:002626
#02616:000000000026002600000000
#03512:24000013
#03516:000000000000000000001314
#0351a:24000014
#03510:41
#03716:13
#03718:000000000013000000000000
#03715:0016
#03717:00130000
#03712:00000024
#0371a:00000024
#04012:13131300
#0401b:130000000000000000000000000000001300000000000000130000000000000000000000000000000000000000000000000000530000000000000000000000000000000000000000000000000000000000000000000000000000000000000000
#04018:001300
#04015:000000000013000000000000
#04017:0013
#04019:00000000000000000000000000000000000000000000000000000000000000000053000000000000000000000000000000000000000000000000000000000000
#04014:00000000000000000000000000000000000000000000000000000000000000000053000000000000000000000000000000000000000000000000000000000000
#04016:0000000000000000000000000000000000530000000000000000000000000000
#0431b:001300000000
#04315:000000000013000000000000
#04318:000013
#04312:2c2c2c2c
#0461b:131300000000
#04612:130013000013000000000000
#04618:00132400
#04615:001300
#04614:000000000000002424282828
#04614:000000000028
#0031b:13131300
#00318:001300000013000000140000
#00315:001313000000
#00312:000000130000000014000000
#00314:0014
#00313:000000000000001400000000
#00319:000000000014
#0031a:000000000000000000000014
#0061a:000014000014240000000000
#00612:00142400
#00616:241400
#00615:00000013
#00618:00000013
#0071a:000014000000000000141414
#00712:220000141414000014000000
#00716:0024
#0071c:22
#0091b:130000130000130000000013
#00918:001300000000000013000000
#00915:000013000000001300000000
#00912:00131316
#00916:000000001414000000000000
#00910:41
#01012:131300
#01018:00000016
#01015:001400140014000000000000
#01019:000013000000131300000000
#01016:000013
#01512:140000130000140000000013
#0151b:1313
#01518:001300000013001300160000
#01515:001313001300
#0151a:00140000
#02318:000000000013130000000000
#02315:000000000013130000000000
#0231b:13
#02316:13
#02317:0013000000000000
#02312:0013000000000000
#02418:1616
#02417:001400001400
#02412:14161416
#02415:000000000014000000000014
#0241a:00140014
#0271b:131300000000131300130000
#02712:260000131300160000130013
#02715:001300001300
#02718:000000160013000000000000
#02710:41
#02812:00131613
#0281b:1313
#02815:131313001300
#02818:001300160013001300160000
#05512:130000001400130000130000
#0551b:000000130000000000000013
#05518:001400000000001400240000
#05516:001400240000
#05514:000000240014000000000000
#0551a:240014
#0561b:00001313
#05618:130000240014000000000000
#05614:001400000000001400240000
#05616:001400240000
#05612:240000130000000014000000
#0561a:001400
#02912:000000130016160000130000
#0291b:130000000000130000000013
#02918:000016160000001300160000
#02915:001600001600000013000000
#03012:291715130000290000000000
#03017:001700
#03019:000000000015000000000000
#0301b:0013
#03015:00290000
#03612:00141813
#03616:180000000014000000001313
#0361b:00130000
#03617:001300
#04112:1300000000000000130000000000000013000000000000000053000000000000
#0411b:130000000000000000000000000000001300000000000000130000000000000000000000000000000000000000000000000000530000000000000000000000000000000000000000130000000000000000000000000000000000000000000000
#04115:000000000013000000000000
#04116:000000000000000013130000
#04118:001300
#04117:0013
#04119:00000000000000000000000000000000000000000000000000000000000000000053000000000000000000000000000000000000000000000000000000000000
#04114:00000000000000000000000000000000000000000000000000000000000000000000000000000000000000000000000000530000000000000000000000000000
#0421b:13131300
#04212:000013130000130000000013
#04218:000000000013000000000000
#04215:001300
#0491b:00130013
#04912:260016000000130000260013
#04915:001600261600001300000000
#04918:000000000016260013000000
#05015:291313000000000000000000
#05012:0000002913132c0000000000
#05416:001400240014001414000000
#05412:0000140000002400002c0000
#0541a:240014140000
#05917:000000000000000000000013
#05912:0013132813130013002c0000
#05915:000013
#05916:2828
#05910:41
#06115:291600001613291600000000
#06118:001300001300
#06112:0029002c
#06512:13161300
#06515:001300000013000000000000
#06518:161313130000
#0651b:00130013
#06519:000000000000001300000000
#0651a:000013
#06514:000000000013
#06513:000000000000000000000013
#06516:0000000000130000
#06517:0000000000000013
#06616:001414001414000000000000
#06612:24242413
#0661b:00000013
#0661a:00242400
#06716:221418281400
#0671a:000000140014000000000000
#06712:000000000000000000141814
#06718:22
#06816:000000000000000000000000000000000000000000000000000000000000000014000000000000000000000000000000000000000000000000000000000000001800000000000000000000000000000000000000000000000000000000000000000000000000000000000000000000000000000000000000000000000000000000000000000000000000000000000000147400000000000000000000000000000000000000000000000000000000000000000000000000000000000000000000
#0681a:000000140014000000000000
#06812:282c
#06912:241c002c1c00
#06918:000000140000000000000014
#06916:000014000014
#06914:000000000014000000140000
#0691a:24
#0581a:001400000000000000000000
#05816:000014280014000000000000
#05812:2800142c0000
#01312:130000130000130000000013
#01315:001300000000000013000000
#01318:000013000000001300160000
#0131b:13131300
#01316:000000001414000000000000
#0141b:131300
#01412:00000016
#01417:001400140014000013000000
#01414:000013000000131300000000
#02212:130000130000000013130000
#02216:0013001300000000
#02217:170000000000170013130000
#02219:00150000
#02112:14130000
#0211b:000000000013130000130000
#02114:001400000000000000000000
#02116:000014000000000000130000
#02118:26160000
#03112:131300160000131300130000
#0311b:000000131300000000130013
#03118:261300161300
#03115:000000000013000000000000
#0321b:00130013
#03215:001300000013001300000000
#03218:131313161300
#03212:23161316
#0331b:00130013
#03312:130016160000130000160000
#03318:000000000016160013000000
#03315:001600001600001300000000
#03412:122c
#03418:00000024
#03416:000000000028000000002400
#03414:000000000000000000000024
#0341a:002424
#03812:26161616
#0381a:000000001414000000000000
#03818:260000000000001414000000
#03816:000000000000000000001414
#04412:2c00142c00002c00002c0000
#04416:000000000014000000000014
#0441a:000014
#04516:14
#04512:000000530000000000000000000000000000000000000000000000000000000000000000000000001400000000000000140000000000000000000000000000000000000000000000000000000000000000000000000000000000000000000000
#0451a:000000000014140000000000
#04515:0000000000130000
#04518:0000000000130000
#04519:00530000000000000000000000000000000000000000000000000000000000000000000000000000000000000000000000000000000000000000000000000000
#0451b:0053000000000000000000000000000000000000000000000000000000000000
#04514:00530000000000000000000000000000000000000000000000000000000000000000000000000000000000000000000000000000000000000000000000000000
#04712:26142613
#0471b:000000000000130000000013
#04715:000000000000001300000000
#04718:001400260000000013260000
#0471a:14
#04716:000014000014000000000000
#04714:001400
#0471f:21
#0481b:00130013
#04812:13261326
#04815:001300000013001300000000
#04818:261313261300
#04810:41
#0511b:00000013
#05112:140000260000130000260013
#05118:260000001400261300000000
#05115:000013
#05116:000014000014000000000000
#0511a:00140000
#05114:001400000000000000000000
#05212:26132613
#0521b:1313
#05218:001300260013001300260000
#05215:001313001300
#05312:000000130016260000130000
#0531b:0013
#05318:260016000000001300260000
#05315:001600261600000013000000
#05716:001400000000240000140000
#0571a:000014240014000014240000
#05712:240000140000001400000000
#0601b:001313001313001300000000
#06018:000013
#06012:2800282c
#06016:00280000
#07012:2c1c002c0000
#07018:00140000
#07016:001400
#07014:000000000014000000000000
#06312:23
#0631b:23
#06212:242c
#0621a:24
#06216:000000000000000000000000000000000000000000000000000000000000000000000000000000000000000000000000000000000000000000000000000000000000000000000000000000000000000000000000000000000000000000000000000000000000000000000000000000000000000000000000000000000000000000000000000000000000000000000000000000000000000000000000000000000000000000000000000000000000000000000000000000000000000000000000000000000000000000000000000000000000000000000000000000000000000000000000000000000000000000000074540000000000000000000000000000000000000000000000000000000000000000000000000000000000000000000000000000000000000000000000000000000000000000000000000000000000000024000000000000000000000000000000000000000000000000000000000000000000000000000000000000000000000000000000000000000000000000000000000000000000000000000000000000000000000000000000000000000000000000000000000000000000000000000000000000000000000000000000000000000000000000000000000000000000000000000000000000000000000000000000000000000000000000000000000000000000000000000000000000000000000000000000000000000000000000000000000000000000000000000000000000000000000000000000000000000000000000000000000000000000000000000000000000000000000000000000000000000000000000000000000000000000000000000000000000000000000000000000000000000000000000000000000000000000000000000000000000000000000000000000000000000000000000000000000000000000000000000000000000000000000000000000000000000000000000000000000000000000000000000000000000000000000000000000000000000000000000000000000000000000000000000000000000000000000000000000000000000000000000000000000000000000000000000000000000000000000000000000000000000000000000000000000000000000000000000000000000000000000000000000000000000000000000000000000000000000000000000000000000000000000000000000000000000000000000000000000000000000000000000000000000000000000000000000000000000000000000000000000000000000000000000000000000000000000000000000000000000000000000000000
#06214:000000000028000000000000
#00452:00003353
#0045b:00004363
#01257:5353
#01256:00000013
#0125b:00000013
#0395b:0063
#03952:53
#06352:63
#0635b:63
#00556:1214
#00558:12
#0015b:00000063
#00252:0053
#00256:00000063
#01657:53
#01652:0053
#01658:00000014
#0165b:0063
#01654:00000014
#0175b:00530000
#01752:00001353
#01757:00001353
#0185b:63630053
#01857:0023002300000000
#01856:00000053
#01852:37353700
#01956:00530053
#01957:0063
#02056:0000000054233400
#0205a:0000000000240000
#02052:53535333
#02059:0023002300000000
#02558:46
#02552:0036
#03552:64001653
#0355a:54
#03558:0016
#03556:000000000023
#03756:53
#03755:0016
#03752:13000014
#03757:00630000
#0375a:00000014
#04052:53
#0405b:00000013
#04056:00000013
#04352:1c1c1c1c
#00656:14
#00652:0014
#0065a:0014
#00655:00000053
#00658:00000053
#00756:0014
#00752:12
#0075c:12
#00856:14
#0085a:0014
#00852:0014
#00952:00000016
#01058:00000016
#01152:00000016
#02358:0063
#02355:0053
#02357:0023000000000000
#02352:0023000000001400
#02356:53
#0235b:53
#0235a:00000014
#02458:4646
#02452:00360036
#0275b:00000063
#02752:00000013
#02852:00000053
#02858:00000016
#05552:00000053
#05558:00000014
#0565b:00000063
#05654:00000014
#02952:00000053
#02958:00000016
#03052:00005914
#0305b:0053
#03056:00000013
#03452:521c
#03652:13001853
#03656:180000000023
#0365b:00631300
#03657:002300
#04152:53
#0425b:6363
#04252:0053
#04259:00000014
#04253:00000014
#0495b:00000063
#04952:00000016
#05052:006c
#05055:00000016
#04658:0014
#04654:00000018
#05452:0000001c
#05852:18005c16
#05856:00180000
#05956:1818
#05952:0018001c
#06155:1919
#06152:0019001c
#06252:541c
#0625a:54
#06552:0053
#0655b:00000063
#06556:0000000000230000
#06557:0000000000000023
#06856:000000000000000000000000000000000000000000000000000000000000000000000000000000000000000000000000000000000000000000000000000000000000000000000000000000000000000000000000000000000000000000000000000000000000000000000000000000000000000000000000000000000000000000000000000000000000000000000000545400000000000000000000000000000000000000000000000000000000000000000000000000000000000000000000
#06852:181c
#06756:1218
#06758:12
#06952:141c
#0695a:14
#06652:14001453
#0665b:00000063
#0665a:00140000
#01358:00000016
#01452:00000016
#01558:00000016
#02252:53530063
#02256:0023002300000000
#02257:47004763
#02259:00450000
#02152:00630000
#0215b:00001363
#02156:00001363
#02658:46
#02652:00000016
#03152:00000053
#0315b:00000013
#0325b:00000063
#03252:00000016
#0335b:00000063
#03352:00000016
#03852:16
#03858:16
#04452:1c1c1c1c
#0455b:0053000000000000000000000000000000000000000000000000000000000000
#04552:0053000000000000000000000000000064000000000000000000000000000000
#0455a:0054
#04555:0000000000230000
#04558:0000000000230000
#04752:00000053
#04758:00000016
#0485b:00000063
#04852:00000016
#0515b:00000063
#05152:00000016
#05252:00000053
#05258:00000016
#05752:00640000
#05756:00000064
#0575a:00000014
#06052:1800181c
#06056:00180000
#07052:1c1c
#05358:00000016
#05352:00000053
#001320:000000000000132300000000
#001381:000000000000001323000000
#001350:000000000000000013230000
#0013b1:00000013
#001371:000000000000000000000023
#002321:0013
#002361:000023
#002361:00000013
#003321:23
#004321:00000013
#005361:22
#0043b0:00000013
#005380:22
#006350:00000013
#007320:22
#006381:00000013
#0073c1:22
#012371:13
#0123b1:002300000000
#012371:0013
#0123b1:000000000000000033230000
#016371:13
#0163b1:002300000000
#016321:0013
#016381:00000024
#0163b0:0013
#016340:00000024
#0173b0:00130000
#017370:000000000033230000000000
#017370:00000013
#0173b0:000000000000000000000023
#017321:00000013
#017361:000000000000000000000023
#0183b1:13332300
#018371:0053003300000000
#0183b1:00000013
#018371:000000000000000000000023
#018360:00000013
#018320:000000000000000000000023
#019360:00130000
#019320:000000000033230000000000
#019371:0013
#0193b1:000000000000000033230000
#019360:00000013
#019320:000000000000000000000033
#020320:33333323
#020390:0053005300000000
#020360:0000000000530000
#020361:14003424
#0203a1:0000000000540000
#021321:00130000
#021361:000000000033230000000000
#021361:00000013
#021321:000000000000000000000023
#0213b0:00000013
#021370:000000000000000000000023
#022320:13332300
#022360:0053003300000000
#022320:00000013
#022360:000000000000000000000023
#022371:00000013
#0223b1:000000000000000000000023
#0233b1:13230000
#023371:0053000000000000
#023360:13230000
#023320:0053000000000000
#023380:0013
#023320:00000024
#023351:0013
#0233a1:00000024
#0273b1:00000013
#027351:000000000000000000000026
#028321:00000013
#029351:26
#029321:00000013
#029351:000000000000000000000026
#0303b1:0013
#030361:00000023
#030320:00001924
#031320:00000013
#031350:000000000000000000000026
#0323b0:00000013
#033350:26
#0333b0:00000013
#034350:26
#034321:12
#034361:002400
#035321:14
#035381:0026
#0353a0:14
#035320:0026
#035320:000000000000000000130033
#035360:000000000053
#036320:23
#0363b0:000000130033230000000000
#036370:005300
#036320:000000000000000000130033
#036360:000000000053
#037320:23
#037361:13
#0373b1:00230000
#037370:00130000
#037320:000000000023000000000000
#039320:13
#039360:002300000000
#0393b0:0013
#039370:000023
#040320:13
#040360:002300000000
#0403b0:0000000000000000000000000000000000130000000000002300000000000000
#040361:0000000000000000000000000000000000130000000000002300000000000000
#041321:13
#041361:002300000000
#0413b1:000000000000000000000000000000000000000000000000000000000000000000000000000000000000000000000000000000130000000000000000000000002300000000000000000000000000000000000000000000000000000000000000
#041321:0000000000000000000000000000000000000000000000000013000000000000
#042321:23
#0423b0:13
#042370:002300000000
#042320:0013
#042390:00000024
#0423b1:0013
#042331:00000024
#0453b1:0013000000000000000000000000000000000000000000000000000000000000
#045381:00230000
#045320:0013000000000000000000000000000000000000000000000000000000000000
#045350:00230000
#0453a0:00001424
#045350:0000000000530000
#045321:00001424
#045381:0000000000530000
#047321:00000013
#047351:000000000000000000000026
#0483b1:00000013
#049381:23
#0493b1:00000013
#049351:000000000000000000000026
#050321:001c
#050351:00000026
#0513b1:00000013
#051351:000000000000000000000026
#052321:00000013
#053351:23
#053321:00000013
#054351:25
#055321:00000013
#055351:000000000000000000000026
#0563b1:00000013
#057361:24
#057321:00140000
#057361:000000000024000000000000
#057361:00000014
#058321:28
#058321:00001c26
#062321:14
#062361:00240000
#0623a0:14
#062360:000000000000000000000000000000000000000000000000000000000000000000000000000000000000000000000000000000000000000000000000000000000000000000000000000000000000000000000000000000000000000000000000000000000000000000000000000000000000000000000000000000000000000000000000000000000000000000000000000000000000000000000000000000000000000000000000000000000000000000000000000000000000000000000000000000000000000000000000000000000000000000000000000000000000000000000000000000000000000000000024000000000000000000000000000000000000000000000000000000000000000000000000000000000000000000000000000000000000000000000000000000000000000000000000000000000000000000000000000000000000000000000000000000000000000000000000000000000000000000000000000000000000000000000000000000000000000000000000000000000000000000000000000000000000000000000000000000000000000000000000000000000000000000000000000000000000000000000000000000000000000000000000000000000000000000000000000000000000000000000000000000000000000000000000000000000000000000000000000000000000000000000000000000000000000000000000000000000000000000000000000000000000000000000000000000000000000000000000000000000000000000000000000000000000000000000000000000000000000000000000000000000000000000000000000000000000000000000000000000000000000000000000000000000000000000000000000000000000000000000000000000000000000000000000000000000000000000000000000000000000000000000000000000000000000000000000000000000000000000000000000000000000000000000000000000000000000000000000000000000000000000000000000000000000000000000000000000000000000000000000000000000000000000000000000000000000000000000000000000000000000000000000000000000000000000000000000000000000000000000000000000000000000000000000000000000000000000000000000000000000000000000000000000000000000000000000000000000000000000000000000000000000000000000000000000000000000000000000000000000000000000000000000000000000000000000000000000000000000000000000
#063321:13
#064381:0026
#0633b0:13
#064320:0026
#065320:00001323
#065360:0000000000530000
#0653b1:00000013
#065371:0000000000000053
#0663a1:24
#066321:00000013
#067361:22
#0663b0:00000013
#067380:22
#068360:00000014
#069320:24
#068361:000000000000000000000000000000000000000000000000000000000000000000000000000000000000000000000000000000000000000000000000000000000000000000000000000000000000000000000000000000000000000000000000000000000000000000000000000000000000000000000000000000000000000000000000000000000000000000000000001400000000000000000000000000000000000000000000000000000000000000000000000000000000000000000000
#0693a1:24
#040970:0013
#0409b0:0000000000000000000000000000000000230000000000000000000000000000
#040921:0013
#040961:0000000000000000000000000000000000230000000000000000000000000000
#041971:0013
#0419b1:0000000000000000000000000000000000230000000000000000000000000000
#041961:00000013
#041921:0000000000000000000000000000000000000000000000000023000000000000
