This file was generated by Ched 2.6.4.0.
#TITLE ""
#ARTIST ""
#DESIGNER ""
#DIFFICULTY 0
#PLAYLEVEL
#SONGID ""
#WAVE ""
#WAVEOFFSET 0
#JACKET ""
#REQUEST "ticks_per_beat 480"
#00002: 4
#BPM01: 165
#BPM02: 160
#BPM03: 150
#BPM04: 140
#BPM05: 130
#BPM06: 115
#BPM07: 100
#00008: 01
#07608: 02
#07708: 03
#07808: 04
#07908: 05
#08108: 06
#08208: 07
#TIL00: ""
#HISPEED 00
#MEASUREHS 00
#0441f:11
#00514:14
#00618:14
#00712:14
#0081a:14
#00810:41
#00914:14
#0131a:14
#01414:14
#01514:14
#01618:14
#01718:14
#01812:14
#01810:41
#01912:14
#02812:0016
#02818:26
#02810:41
#03012:16
#03018:0016
#03112:16
#03118:0016
#03618:0016
#03612:26
#03412:1616
#03518:1616
#03212:1616
#03318:1616
#03818:16
#03812:0016
#03810:41
#03918:16
#03912:0016
#04018:1616
#04112:1616
#05618:0016
#0561f:21
#05612:26
#05818:16
#05812:0016
#05810:41
#05918:16
#05912:0016
#06018:1616
#06112:1616
#06418:16
#06412:0016
#06518:16
#06512:0016
#06812:0016
#06810:41
#06918:16
#07012:16
#07018:0016
#07112:16
#07218:16
#07212:0016
#07318:16
#0101a:0034
#05012:0034
#0521a:0034
#05319:0035
#0003a0:14
#0013a0:34
#0023a0:34
#0033a0:34
#0043a0:24
#010380:14
#0103a0:0000000034000034
#0123a0:24
#0203a0:14
#0213a0:24
#022320:14
#023320:24
#024380:14
#025380:24
#026340:1434
#027340:3424
#029380:1626
#037320:1626
#042380:1626
#043320:1626
#0443a0:14
#045390:54
#0463a0:54
#047390:5424
#048320:14
#049330:54
#050320:3434
#051320:3525
#0523a0:1434
#053390:3535
#054380:36
#055380:26
#057320:1626
#062380:1626
#063320:1626
#066380:16
#066370:0036
#067380:36
#068380:26
#074320:1600000036000026
#0763a0:14
#077390:34
#0783a0:34
#079390:34
#0803a0:3434
#0813a0:34
#0823a0:34
#0833a0:0024
