This file was generated by Ched 2.7.0.0.
#TITLE ""
#ARTIST ""
#DESIGNER ""
#DIFFICULTY 0
#PLAYLEVEL
#SONGID ""
#WAVE ""
#WAVEOFFSET 0
#JACKET ""
#REQUEST "ticks_per_beat 480"
#00002: 4
#BPM01: 140
#00008: 01
#TIL00: ""
#VOLUME: ""
#HISPEED 00
#MEASUREHS 00
#0051a:14
#00614:14
#00714:14
#00818:14
#00918:14
#01012:14
#01112:14
#01218:14
#01210:41
#01314:14
#01418:14
#01514:14
#0161a:14
#01712:14
#02112:14
#02218:14
#02318:14
#02414:14
#02514:14
#0261a:14
#0271a:14
#02710:41
#03612:0016
#03618:26
#0361f:21
#03812:16
#03818:0016
#04018:16
#04012:0016
#04118:16
#04112:0016
#04818:16
#04812:0016
#04810:41
#04918:16
#04912:0016
#05318:14
#05414:14
#0551a:14
#05612:14
#05718:14
#05814:14
#0591a:14
#03414:14
#02012:14
#02010:41
#0281f:11
#05018:26
#03214:24
#03318:24
#05212:26
#00410:41
#03710:41
#002380:14
#004360:28
#0183a0:14
#0193a0:24
#028340:14
#029340:24
#030380:14
#031380:24
#037380:1626
#039320:1626
#042380:1626
#043320:1626
#0443a0:14
#0453a0:24
#046320:14
#047320:24
#050380:16
#051380:26
#060320:14
#062320:00240000
