This file was generated by Ched 2.7.0.0.
#TITLE ""
#ARTIST ""
#DESIGNER ""
#DIFFICULTY 0
#PLAYLEVEL
#SONGID ""
#WAVE ""
#WAVEOFFSET 0
#JACKET ""
#REQUEST "ticks_per_beat 480"
#00002: 4
#BPM01: 140
#00008: 01
#TIL00: ""
#VOLUME: ""
#HISPEED 00
#MEASUREHS 00
#0051a:14
#00514:0014
#0121a:1414
#01210:41
#01314:0014
#0131a:14
#01318:00000014
#01512:14
#01518:0014
#01514:00000014
#0161a:1414
#0211a:1414
#02114:00140000
#02212:1414
#02218:00140000
#0231a:1414
#02312:00140000
#04012:1414
#04018:00140000
#0521a:2414
#05214:00140014
#05412:1414
#05418:00140014
#05514:1414
#0551a:00140000
#0561a:1414
#05614:00140014
#05718:1414
#05712:00140000
#05812:1414
#05818:00140014
#00414:0014
#0041a:24
#00410:41
#00618:14
#00612:0014
#00718:14
#00712:0014
#0081a:14
#00814:0014
#0091a:14
#00914:0014
#01018:14
#01012:0014
#01118:14
#01112:0014
#01412:1414
#0171a:14
#01714:0014
#01718:00000014
#02018:00140000
#02014:2414
#02010:41
#02712:0014
#02710:41
#0291a:1414
#02914:00140000
#03112:1414
#03118:00140000
#03718:1414
#03714:00140014
#03710:41
#0411a:1414
#04114:00140000
#04214:1414
#04218:00140014
#04314:14
#04418:14
#04818:14
#04814:00140000
#0481a:0014
#04812:00000014
#04810:41
#05318:1414
#05312:00140000
#05914:1400000000000014
#0591a:00140000
#05912:0014
#05918:00000014
#0281f:11
#03612:24
#0361f:21
#0501a:24
#05012:24
#0601a:24
#0191a:24
#03218:00000000000000260000000000000000
#00214:24
#03312:00000000000000260000000000000000
#03258:00000000000000160000000000000000
#03652:54
#04354:54
#04458:54
#00352:14
#03352:00000000000000160000000000000000
#0355a:0000001400000000
#05052:54
#0505a:54
#0605a:54
#002340:14
#003320:24
#018320:1424
#0193a0:1424
#024340:14
#024320:0024
#025380:14
#0253a0:0024
#026340:14
#027320:24
#028380:14
#0283a0:0024
#030340:14
#030320:0024
#032380:16000000000000260000000000000000
#033320:16000000000000260000000000000000
#034380:14
#0343a0:0000000000000034
#0353a0:0034342400000000
#036320:14
#036340:0024
#0383a0:14
#038380:0034
#0393a0:34
#039380:0024
#043340:14
#043320:0024
#044380:14
#0453a0:0024
#046340:14
#047320:34
#047340:0024
#049380:14
#0493a0:0024
#0503a0:14
#051380:24
#050321:14
#051341:24
#0603a1:14
#062381:00240000
