This file was generated by Ched 2.7.0.0.
#TITLE ""
#ARTIST ""
#DESIGNER ""
#DIFFICULTY 0
#PLAYLEVEL
#SONGID ""
#WAVE ""
#WAVEOFFSET 0
#JACKET ""
#REQUEST "ticks_per_beat 480"
#00002: 4
#BPM01: 124
#00008: 01
#TIL00: ""
#VOLUME: ""
#HISPEED 00
#MEASUREHS 00
#0011a:14
#00214:14
#00318:14
#00412:14
#0131a:14
#01310:41
#01518:14
#01414:14
#01612:14
#0171a:14
#01814:14
#02512:14
#02518:0014
#02612:14
#02618:0014
#02714:14
#0271a:0014
#02710:41
#02814:14
#0281a:0014
#0311a:14
#0321a:14
#03314:14
#03414:14
#03410:41
#03518:14
#0351f:11
#03618:14
#03918:14
#04012:14
#0411a:14
#04214:14
#04312:0016
#04318:26
#0431f:21
#04310:0041
#04418:1616
#04512:16
#04518:0016
#04612:1616
#04718:16
#04712:0016
#04818:16
#04812:0016
#04918:16
#04912:0016
#05018:16
#05012:0016
#05314:14
#0541a:14
#05512:14
#05618:14
#03018:26
#03012:00260000
#03712:24
#01918:24
#05212:26
#05218:00260000
#02318:0034
#02418:34
#02114:0034
#02110:41
#02214:34
#00510:41
#0053a0:14
#0063a0:24
#007340:14
#008340:24
#009380:14
#010380:24
#011320:14
#012320:24
#019380:14
#020380:24
#021340:1434
#022340:34
#022320:0024
#023380:1434
#024380:34
#0243a0:0024
#029320:1424
#037320:14
#038320:24
#051380:1626
#057340:14000034
#058340:00000024
#059380:14000034
#060380:00000024
