This file was generated by Ched 2.7.0.0.
#TITLE ""
#ARTIST ""
#DESIGNER ""
#DIFFICULTY 0
#PLAYLEVEL
#SONGID ""
#WAVE ""
#WAVEOFFSET 0
#JACKET ""
#REQUEST "ticks_per_beat 480"
#00002: 4
#BPM01: 124
#00008: 01
#TIL00: ""
#VOLUME: ""
#HISPEED 00
#MEASUREHS 00
#00118:000000000013000000130000
#00112:000013
#00115:230000000000000000000013
#0021b:000000000013000013000000
#00215:00000013
#00218:000000000000000000000013
#00319:00130013
#00312:13
#00518:000000130000000000000013
#00515:000000000013000000130000
#0051b:0013
#00510:41
#00618:00130000
#00615:000000000013000000130000
#0061b:0013
#00912:13000013
#0091b:000000000013000000130000
#00915:00131300
#00918:130000000000000000000013
#01318:000000000013000000000000
#01315:130000000000000000000013
#0131b:00000023
#01312:00230000
#01310:41
#01418:000000000013000000000000
#01412:00230000
#0141b:00000023
#01512:130000000000000000000013
#0151b:000000000013000000000000
#01516:00240024
#01715:130000000013000000000000
#01718:130000000000130000000013
#01712:00230023
#0161b:000000000013000000000000
#01616:00240024
#01818:000000000013000000000000
#01815:1313
#0181b:00230023
#01915:1313
#01912:00130013
#01918:1313
#0191b:00130013
#01914:000000000000003300000033
#01913:000000003333
#01919:000000000000003300000033
#0191a:000000003333
#02018:00000013
#03112:130000000013000000000013
#03118:1313
#03115:000013
#0311b:00230023
#0321b:000000000013000000000000
#03218:130013
#03215:0013
#03212:00230023
#03813:00120000
#03817:000000001200000000000012
#03814:000000000012000000000000
#03818:0012
#03819:000012
#0381a:000000000012
#03815:000000000000001200000000
#03816:00000012
#03914:00000012
#0391a:00000012
#0391b:005200
#03919:000000000052000000000000
#03917:0052
#04014:000000000052000000120000
#0401a:00000012
#04016:005200
#04012:0052
#04715:000000130013000000130000
#0471b:13
#04818:00130000
#04916:0013
#04914:00000013
#0491b:000000000023000000000000
#04919:000023
#04917:000000000000000000000023
#05012:130000000023000000000000
#05017:0013
#05019:00000013
#05014:000023
#05016:000000000000000000000023
#0511b:130000000000000000000000000000000000130000003333
#05117:00130000
#05112:00130000
#05119:0013
#05116:000000000000000000000000000000000000130000003333
#05114:0013
#05216:00000014
#05212:00260000
#05218:25260000
#05418:000000000000000000000013
#0541b:130013
#05415:00000013
#05417:000000000013000000000000
#05815:13535353
#0581b:00000023
#05919:12525252
#05912:00000022
#06015:12525252
#0601c:00000022
#05718:13535353
#05712:00000023
#0351b:130000000013000000000000
#03518:000013000000000000230000
#03512:1313
#03515:000000230000000000000013
#0351f:11
#0041b:13
#00418:003300000000
#02114:14141414
#0211b:1313
#02118:00130000
#02110:41
#02215:1313
#02212:00130000
#0221a:14141414
#02318:1313
#0231b:00130000
#02312:14141414
#02412:1313
#02415:00130000
#02418:14141414
#02515:000000000013000000130000
#02518:0013
#02512:23130000
#02715:00131313
#0271b:000013
#02718:130000000013000000000000
#02712:23
#02710:41
#01217:00121212
#01213:00120012
#0121b:0012
#04114:00120052
#04118:00520052
#04119:005252
#0411a:000000000052005200000000
#0411b:0052
#04117:0052
#04116:000000000052005200000052
#04115:000052005252
#01113:001400140014
#01112:001400
#01114:240014
#01119:001400140014
#01118:001400
#0111a:240014
#01012:000000000013000000130000
#01018:00131300
#0101b:00000013
#01015:13
#04218:000000000000000000000013
#04212:00220000
#04214:0022
#04216:00000022
#04217:52
#03719:24141414141414141414141414141414
#03718:0000001400000014000000140000001400000014000000140000001400000014
#0371a:0014000000140000001400000014000000140000001400000014000000140000
#03713:24141414141414141414141414141414
#03712:0000001400000014000000140000001400000014000000140000001400000014
#03714:0014000000140000001400000014000000140000001400000014000000140000
#00715:000000130000000000000013
#00718:000000000013000000130000
#00712:0013
#00815:00130000
#00818:000000000013000000130000
#00812:0013
#02615:0013
#02618:00000013
#0261b:23
#02818:00131313
#02812:000013
#02815:130000000013000000000000
#0281b:23
#0331b:130000000013000000000013
#03315:1313
#03318:000013
#03312:00230023
#03412:000000000013000000000000
#03415:130013
#03418:0013
#0341b:00230023
#03410:41
#03618:130000000013000000000000
#03615:0013
#03612:0000230000130000
#0361b:0013000000002300
#03018:26160000
#03012:00260000
#05312:130013
#05318:00000013
#05315:000000000000000000000013
#05316:000000000013000000000000
#0531b:23
#05512:13000024
#05516:000000000013000000000000
#0551b:000000000000130000000023
#0551a:00240000
#04612:000013000013000013000013
#04516:000000000000000000000013
#04517:00000013
#04512:000013
#0451b:000013000013000000000000
#04312:000013
#04317:00000013
#04316:000000000000000000000013
#0431f:21
#04310:0041
#04416:00000013
#0441b:000013
#04417:000000000000000000000013
#04412:000013000013000000000000
#05612:002300000000
#0561b:000000000023000000000000
#05616:00242424
#02918:22232425
#01955:6363
#01952:00230023
#01958:6353
#0195b:00230023
#03258:53
#04956:00130000
#04957:000000000000000000000053
#0495b:00130000
#05052:53
#05056:000000000000000000000063
#0515b:63000023
#05157:00230000
#05152:00230000
#05159:0063
#05156:00000023
#05154:0063
#05253:15
#05252:00160000
#05258:15160000
#02158:00530013
#0215b:5353
#03152:63
#0045b:63
#00455:00000013
#00458:00000013
#02255:5353
#02252:00530013
#02358:6363
#0235b:00630013
#02452:6363
#02455:00630013
#02558:0063
#0255b:00000013
#02755:00000013
#02758:63
#00352:53
#01153:005400540054
#01152:002400
#01154:240024
#01159:005400540054
#01158:002400
#0115a:240024
#04356:000000000013000000000000
#0435b:000000000013000000000000
#05656:00000054
#00958:53
#01055:63
#01355:13
#02058:13
#03759:64646464646464646464646464646464
#03758:0000002400000024000000240000002400000024000000240000002400000024
#0375a:0024000000240000002400000024000000240000002400000024000000240000
#03753:64646464646464646464646464646464
#03752:0000002400000024000000240000002400000024000000240000002400000024
#03754:0024000000240000002400000024000000240000002400000024000000240000
#00158:000000000013000000000000
#0025b:000000000013000000000000
#02655:0053
#02652:00000013
#02858:00000013
#02855:53
#03455:63
#0335b:53
#03552:0063
#03658:53
#03655:0063
#03652:0000000000230000
#0365b:0023000000000000
#05752:14
#03058:16160000
#03052:16160000
#05352:63
#05356:000000000013000000000000
#0535b:000000000013000000000000
#0545b:53
#05457:000000000013000000000000
#05452:000000000013000000000000
#05552:63
#0555b:0053
#01758:5353
#01855:6363
#04758:00130000
#04755:00130000
#0475b:53
#0455b:000000000013000000000000
#04556:000000000013000000000000
#04452:000000000013000000000000
#04457:000000000013000000000000
#001380:13230000
#001321:000000130023000000000000
#0023b1:13230000
#002350:000000130023000000000000
#003320:13
#003350:000000330033000033330033
#004350:23
#0043b1:13
#004381:000033230000000000000000
#004350:00130023
#004381:000000000013000000230000
#005321:13230000
#006321:13230000
#0073b1:13230000
#0083b1:13230000
#009381:13
#0093b1:00230000
#010351:13
#010321:00230000
#011341:140054
#011331:005400540054
#011321:005400
#012321:24
#0113a0:140054
#011390:005400540054
#011380:005400
#012380:24
#013380:13230000
#013350:00001323
#014380:13230000
#014350:00001323
#0153b0:13230000
#015320:00001323
#0163b0:13230000
#016320:00001323
#017380:13
#0173b0:00230000
#017380:0013
#0173b0:00000023
#018350:13
#018320:00230000
#018350:0013
#018320:00000023
#019350:1333
#019320:00330033
#019340:000000000000003300000033
#019330:000000003333
#020350:33000023
#019381:1333
#0193b1:00330033
#019391:000000000000003300000033
#0193a1:000000003333
#020381:23
#0213b0:1353
#021380:00530023
#022350:1353
#022320:00530023
#023380:1353
#0233b0:00530023
#024320:1353
#024350:00530023
#025380:13230000
#025380:0013
#0253b0:00000023
#026350:13230000
#026381:00132300
#026350:0013
#026320:00000023
#027380:13
#0273b0:00230000
#028350:13
#028320:00230000
#029360:12
#030320:26
#031320:13
#031350:00230000
#032380:13
#0323b0:00230000
#0333b0:13
#033380:00230000
#034350:13
#034320:00230000
#035320:0013
#035350:00000023
#036380:13230000
#0363b0:0053000000000000
#036350:00001323
#036320:0000000000530000
#037390:14545454545454545454545454545454
#0373a0:0054000000540000005400000054000000540000005400000054000000540000
#037380:0000005400000054000000540000005400000054000000540000005400000054
#038390:24
#037331:14545454545454545454545454545454
#037341:0054000000540000005400000054000000540000005400000054000000540000
#037321:0000005400000054000000540000005400000054000000540000005400000054
#038331:24
#0393b1:122200
#040361:122200
#040381:000000000000000000000012
#041381:00220000
#0423c1:12
#042391:00000025
#043321:13
#043361:000000330023000000000000
#0433b0:000000130023000000000000
#0443b0:132300000000
#044370:000000130023000000000000
#045320:132300000000
#045360:000000130023000000000000
#0463b0:132300000000
#046370:000000130023000000000000
#0463b0:000000132300
#046370:000000000000000000130023
#0473b0:13
#047380:00230000
#047380:0013
#0473b0:00000033
#048380:23
#048351:1323
#048321:00330000
#048380:0013
#0483b0:00000023
#048361:00000013
#049321:33
#049361:00230000
#049370:13
#0493b0:00230000
#049370:000000000000000000000013
#0503b0:00230000
#050321:13
#050361:00230000
#050361:000000000000000000000013
#051321:00330000
#051341:0033
#051361:000000000000000000000000000000000000330000003333
#052331:25
#0513b0:130000000000000000000000000000000000330000003333
#051370:00330000
#051390:0033
#052380:25
#053320:13
#053360:00230000
#0533b1:000000130023000000000000
#0543b1:13
#054371:00230000
#054320:000000130023000000000000
#055320:13
#055360:00230000
#0553b0:0013
#055370:00000023
#0553b0:000000000000000000000013
#0563b0:002300000000
#056321:000013000023000000000000
#0563b0:000000000013000000230000
#056361:00000014
#057321:24
#0399b0:001200
#039970:0022
#040960:001200
#040920:0022
#041980:00120022
#0419b0:0052
#041941:00120052
#041971:0052
#042971:22
#057981:13000023
#058951:13000023
#059991:12000022
#060951:12000022
