This file was generated by Ched 2.6.4.0.
#TITLE ""
#ARTIST ""
#DESIGNER ""
#DIFFICULTY 0
#PLAYLEVEL
#SONGID ""
#WAVE ""
#WAVEOFFSET 0
#JACKET ""
#REQUEST "ticks_per_beat 480"
#00002: 4
#BPM01: 140
#00008: 01
#TIL00: ""
#HISPEED 00
#MEASUREHS 00
#0401f:11
#0401b:0000130013000013
#04016:0000130013000013
#04012:2300001300001300
#04017:0000001300001300
#0201b:13000013000013000000000000000000
#02017:0000001300000000001300000000000013000000000000000000000000000000
#02012:2300000013000013
#02014:00000023000000000000000000000000
#02016:0000002300000000
#02010:41
#02115:1300000000000013
#02113:0013000000000000
#02116:00131300
#02114:0000001300000000
#0211b:0000000000130000
#02117:00000013
#02112:00000000000000000000000000130000
#02212:13000013000013000000000000000000
#02216:0000001300000000001300000000000013000000000000000000000000000000
#0221b:2300000013000013
#02219:00000023000000000000000000000000
#02217:0000002300000000
#02318:13
#0231a:0013000000000000
#02317:00131300
#02319:0000001300000000
#02312:0000000000130000
#02316:00000013
#02416:0013000013000000
#0241b:0013000023000000
#02417:1300000000130000
#02412:2300000000130000
#02414:0000001300000013
#02419:0000001300000013
#02512:1313
#02517:1313
#02519:0013000000130013
#0251b:00130013
#02516:00130013
#02514:0000001300000000
#02513:00000000000000000000000000130000
#0261b:13000013000013000000000000000000
#02617:0000001300000000001300000000000013000000000000000000000000000000
#02612:2300000013000013
#02614:00000023000000000000000000000000
#02616:0000002300000000
#02715:13
#02713:0013000000000000
#02716:00131313
#02714:0000001300000018
#02717:0000000000130000
#0271b:00000013
#02817:1300001300000000
#0281b:00000000130000000013000000000000
#02819:0013000000000000
#02812:13000013
#02816:00000013000000001300000000000000
#02814:0000000000130018
#02810:41
#02916:1300001300000000
#02912:00000000130000000013000000000000
#02914:0013000000000018
#0291b:13000013
#02917:00000013000000001300000000000000
#02919:0000000000130000
#03019:1200000000130000
#03018:0014000000000000
#03016:0012
#0301b:0000000000000013
#03118:13
#0311a:0013000000000000
#03117:00131300
#03119:0000001300000000
#03112:0000000000130000
#03116:00000013
#03114:0000000000000018
#03216:1300001300000000
#03212:00000000130000000013000000000000
#03214:0013000000000018
#0321b:13000013
#03217:00000013000000001300000000000000
#03219:0000000000130000
#03317:1300001300000000
#0331b:00000000130000000013000000000000
#03319:0013000000000000
#03312:13000013
#03316:00000013000000001300000000000000
#03314:0000000000130018
#03419:1200000000130000
#03418:0014000000000000
#03416:0012
#03412:0000000000000013
#03515:13
#03513:0013000000000000
#03516:00131300
#03514:0000001300000018
#0351b:0000000000130000
#03517:00000013
#04816:0000001300000000000000000000000013000000000000000000000000000000
#04812:23000023000000001300000000001300
#04817:0000000000000000001300000000000000000000000000000000000000000000
#0481f:21
#0481b:2300002300000000
#04915:1300000000000013
#04913:0013000000000000
#04916:00131300
#04914:0000001300000000
#0491b:0000000013130000
#04917:00000013
#04912:00000000000000000000000000130000
#0501b:23000023000000001300000000001300
#05017:0000001300000000000000000000000013000000000000000000000000000000
#05016:0000000000000000001300000000000000000000000000000000000000000000
#05012:2300002300000000
#05118:13
#0511a:0013000000000000
#05117:00131300
#05119:0000001300000000
#05114:0000000000130000
#05116:00000013
#05112:0013
#05216:0013000013000000
#0521b:0013000023000000
#05217:1300000000130000
#05212:2300000000130000
#05214:0000001300000013
#05219:0000001300000013
#05210:41
#05312:1313
#05317:1313
#05319:0013000000130013
#0531b:00130013
#05316:00130013
#05314:0000001300000000
#05313:00000000000000000000000000130000
#05412:23000023000000001300000000001300
#05416:0000001300000000000000000000000013000000000000000000000000000000
#05417:0000000000000000001300000000000000000000000000000000000000000000
#0541b:2300002300000000
#05515:13
#05513:0013000000000000
#05516:00131313
#05514:0000001300000018
#05517:0000000000130000
#0551b:00001313
#05617:1300001300000000
#0561b:00000000130000000013000000000000
#05619:0013000000000000
#05612:13000013
#05616:00000013000000001300000000000000
#05614:0000000000130018
#05716:1300001300000000
#05712:00000000130000000013000000000000
#05714:0013000000000018
#0571b:13000013
#05717:00000013000000001300000000000000
#05719:0000000000130000
#05818:0016000000000000
#05819:0000000025150000
#0581b:0000000000000013
#05812:26
#0581a:22
#05814:0023
#05918:13
#0591a:0013000000000000
#05917:00131300
#05919:0000001300000000
#05912:0000000000130000
#05916:00000013
#05914:0000000000000018
#06016:1300001300000000
#06012:00000000130000000013000000000000
#06014:0013000000000018
#0601b:13000013
#06017:00000013000000001300000000000000
#06019:0000000000130000
#06117:1300001300000000
#0611b:00000000130000000013000000000000
#06119:0013000000000000
#06112:13000013
#06116:00000013000000001300000000000000
#06114:0000000000130018
#06212:2600000000000013
#06218:0016000000000000
#06219:0000000025150000
#0621a:22
#06214:0023
#06315:13
#06313:0013000000000000
#06316:00131300
#06314:0000001300000018
#0631b:0000000000130000
#06317:00000013
#06416:12120000
#06414:00000000000000120000000000000000
#0641c:12
#06410:41
#0651c:12000012000000000000000000000000
#06512:12
#06518:00000012
#0651a:0000000000000012
#06614:12120000
#06616:00000000000000120000000000000000
#0661c:12
#06712:12000000000000120000000000001200
#0671a:120000120000003200000000
#0671c:000000120000000000000000000000003232000000000000
#06716:00000012000000000000000012000000
#06718:0000001212000012
#06714:00000000001200000000000000000000
#06719:000000000000000000000000003200000000000000000000
#0671b:0000000000320000
#06816:12
#0681c:12120000
#0681a:00000000000000120000000000000000
#06918:12
#06914:12000012000000000000000012000000
#06912:0000000000000012
#07016:12
#0701a:12120000
#0701c:00000000000000120000000000000000
#07118:12
#07114:12000012000000000000000000000000
#07112:0000000000001212
#03612:12120012
#0361c:1212
#0361a:0000000000120000
#03618:00000012
#03614:0000000000000012
#03610:41
#03716:12
#0371c:1212
#03712:00120012
#0371a:0000000000120000
#03718:00000012
#03714:0000000000000012
#0381c:1212
#03812:00120012
#0381a:0000000000120000
#03818:00000012
#03814:0012000000000012
#03916:1223
#0391c:12
#03914:00120000
#0391a:0000001200000000
#0391b:0013
#03917:00000023
#04112:1300000013000013
#04114:0013000000000000
#04116:00130000
#04117:1313
#0411b:00130013
#04119:0000001300000000
#0421b:1313
#04216:1313
#04214:0013000000130000
#04212:00130013
#04217:00130013
#04219:0000001300000013
#0431b:1313
#04316:1414141414001400
#04312:00130000
#04412:1300000013000013
#04414:0013000000000000
#0441b:00130000
#04419:0000001300000000
#04416:00130013
#04417:0000000013000013
#0451b:1300000013000013
#04519:0013000000000000
#04512:00130013
#04514:0000001300000000
#04516:1300000013000013
#04517:00130000
#04617:2313
#0461b:00130000
#04619:0000001300000013
#04614:0000001300000013
#04612:1323
#04616:00000013
#0471b:0000130000130000
#04712:1300000000130013
#04719:0013001300000000
#04717:2313
#04718:00000013
#04715:00000000000000000000000000130000
#04716:00130000
#00016:12120000
#00014:00000000000000120000000000000000
#0001c:12
#0011c:12000012000000000000000000000000
#00112:12
#00118:00000012
#0011a:0000000000000012
#00214:12120000
#00216:00000000000000120000000000000000
#0021c:12
#0031c:12000012000000000000000000000000
#00312:12
#00318:00000012
#0031a:0000000000000012
#00412:1300001300000000
#0041b:1313
#00417:0000001300000013
#00415:00000000000000000000001300000000
#00416:0013
#00516:1300000013000013
#0051b:13000013000000001300000000000000
#00512:0000001300001300
#00517:0000000000130000
#0061b:1300001300000000
#00616:0000001300000013
#00612:0013
#00618:00000000000000000000001300000000
#00617:0013
#00717:1300000013000013
#00712:13000013000000001300000000000000
#0071b:0000001300001300
#00716:0000000000130000
#00812:13000000000013000000001300000000
#00817:0000001300000000
#0081b:0000000013000013
#00816:0013
#00917:1300001300130000
#00912:13000013
#00916:00000013000000001300000000001300
#0091b:0013
#0101b:13000000000013000000001300000000
#01016:0000001300000000
#01012:0000000013000013
#01017:0013
#0111b:1313
#01117:0013000000130000
#01112:00130013
#01116:1300001300000013
#0121b:13130000
#01216:00130000
#01214:0013
#01219:0013
#01212:00000013
#01217:0000001300001300
#01215:0000000000130000
#01210:41
#0131b:00130013
#01317:0000001300000000
#01312:1313
#01316:0013000000001300
#01319:0000000000130000
#01314:0000000000130000
#0141b:13000013
#01412:00130000
#01417:00130000
#01419:0013
#01414:0013
#01416:0000001300001300
#01418:0000000000130000
#01512:00130013
#01516:0000001300000000
#0151b:1313
#01517:0013000000001300
#01514:0000000000130000
#01519:0000000000130000
#01612:1300001300001300
#01616:0000130000000013
#01618:0013
#0161b:0000130000130013
#01712:00130000000000001300000000000000
#0171b:00130000
#01719:0000001300000013
#01714:0000001300000013
#01717:0013
#01716:00000013
#01817:13
#01814:0013000000000000
#01816:0000131300141414
#01812:2300000000130013
#0181b:0000002300001300
#01914:13000000001300000000000000000000
#01919:13130000
#0191b:0013000013000000
#01916:00000013000000000000000000000000
#01917:0000001300000000
#01912:00000000000000130000000013000000
#01915:00000000000000000000130000130000
#01918:00000000000000000013000000001300
#0205b:53000053000053000000430000000000
#02057:0000002300000000002300000000000023000000000000000000000000000000
#02056:0000005300430000
#02052:0023
#02156:0023
#02154:0000005300000000
#0215b:0000000000530000
#02157:00000023
#02252:63000063000063000000330000000000
#02256:0000002300000000002300000000000023000000000000000000000000000000
#0225b:0023
#02257:0000005300330000
#02359:0000006300000000
#02357:0023
#02456:0023000063004300
#02452:5300330000230000
#0245b:0023000063004300
#02457:5300330000230000
#0265b:53000053000053000000430000000000
#02657:0000002300000000002300000000000023000000000000000000000000000000
#02652:0023
#02656:0000005300430000
#02754:0000005300000000
#02756:0023
#02857:0000006300000000
#0285b:00000000000000000023000000000000
#02852:63
#02856:00000023000000000000000000000000
#02956:0000005300000000
#02952:00000000000000000023000000000000
#0295b:53
#02957:00000023000000000000000000000000
#03058:0024000000000000
#03059:5200000000230000
#03056:0052
#03159:0000006300000000
#03157:0023
#03256:0000005300000000
#03252:00000000000000000023000000000000
#0325b:53
#03257:00000023000000000000000000000000
#03357:0000006300000000
#0335b:00000000000000000023000000000000
#03352:63
#03356:00000023000000000000000000000000
#03459:5200000000230000
#03458:0024000000000000
#03456:0052
#03554:0000005300000000
#03556:0023
#04856:0000002300000000000000000000000023000000000000000000000000000000
#0485b:5300005300430000
#04857:0000000000000000002300000000000000000000430000000000000000000000
#04852:00000063000000002300000000000000
#04954:0000005300000000
#04956:0023
#0495b:0000000000530000
#04957:00000023
#05159:0000006300000000
#05157:0023
#05256:0023000063004300
#0525b:0023000063004300
#05257:5300330000230000
#05252:5300330000230000
#05554:0000005300000000
#05556:0023
#05657:0000006300000000
#0565b:00000000000000000023000000000000
#05652:63
#05656:00000023000000000000000000000000
#05756:0000005300000000
#05752:00000000000000000023000000000000
#0575b:53
#05757:00000023000000000000000000000000
#05858:0026000000000000
#05859:0000000000250000
#0585a:52
#05854:0053
#05959:0000006300000000
#05957:0023
#06056:0000005300000000
#06052:00000000000000000023000000000000
#0605b:53
#06057:00000023000000000000000000000000
#06157:0000006300000000
#0615b:00000000000000000023000000000000
#06152:63
#06156:00000023000000000000000000000000
#06354:0000005300000000
#06356:0023
#06258:0026000000000000
#06259:0000000000250000
#0625a:52
#06254:0053
#0645c:52
#06552:62
#0665c:52
#06758:0052
#06856:52
#06958:62
#07056:52
#07158:62
#0365c:52
#03652:00620000
#0375c:52
#03752:00620000
#0385c:52
#03852:00620000
#0395c:52
#03956:0053
#03957:00000063
#04052:13
#0405b:1313
#04152:0053
#04157:0013
#0425b:0013
#0435b:0013
#04356:00005464
#04457:0053
#04452:0013
#04556:0013
#0455b:0053
#04657:0063
#04652:63
#04752:63
#04756:00230000
#0005c:52
#00152:62
#0025c:52
#00352:62
#0045b:1353
#00452:13
#00455:00000000000000000000005300000000
#00556:5300000000000023
#0055b:00000053000000005300000000000000
#00557:0000000000230000
#00552:00000063
#00652:1363
#0065b:13
#00658:00000000000000000000006300000000
#00757:6300000000000023
#00752:00000063000000006300000000000000
#00756:0000000000230000
#0075b:00000053
#00852:13000000000000000000005300000000
#0085b:1353
#00957:5300000000230000
#00956:00000053000000000000000000002300
#0095b:0053
#00952:00000063
#0105b:13000000000000000000006300000000
#01052:1363
#0115b:5353
#01157:0023000000230000
#01152:00630063
#01156:0000002300000023
#0125b:13
#01252:13
#01257:00000053
#0135b:00530000
#01357:0000002300000000
#01352:63
#01356:0023000000006300
#0145b:13
#01456:00000063
#01452:13
#01552:00630000
#01556:0000002300000000
#0155b:53
#01557:0023000000005300
#01652:1300002300000000
#0165b:1300000000230000
#01656:0000530000000053
#01658:0063
#01752:00230000000000000000000000000000
#01757:0053
#01852:13
#0185b:0000001300000000
#01857:53
#05057:0000002300000000000000000000000023000000000000000000000000000000
#05056:0000000000000000002300000000000000000000330000000000000000000000
#0505b:00000053000000002300000000000000
#05052:6300006300330000
#05456:0000002300000000000000000000000023000000000000000000000000000000
#05457:0000000000000000002300000000000000000000430000000000000000000000
#05452:00000063000000002300000000000000
#0545b:5300005300430000
#0003c0:12
#000380:0000000000000022
#000361:0000000000120022
#001321:12
#001361:0000000000000022
#0013a0:0000001200220000
#0023c1:12
#002381:0000000000000022
#002340:0000000000120022
#003320:12
#003360:0000000000000022
#0033a1:0000001200220000
#0043b0:0013
#004380:00000000000000000000002300000000
#004351:00000000000000000000001300000000
#004321:0000000000000023
#005361:13
#005321:00000023000000000000000000000000
#0053b0:00000013000000000000000000000000
#005370:0000002300000000
#0053b0:00001323
#005370:0000000000530000
#005321:00000013
#005361:0000000000000053
#006321:23
#006321:0013
#006351:00000000000000000000002300000000
#006380:00000000000000000000001300000000
#0063b0:0000000000000023
#007370:13
#0073b0:00000023000000000000000000000000
#007321:00000013000000000000000000000000
#007361:0000002300000000
#007321:00001323
#007361:0000000000530000
#0073b0:00000013
#007370:0000000000000053
#0083b0:23
#0083b0:0013
#008370:00000000000000000000002300000000
#008321:00000000000000000000001300000000
#008361:0000000000000023
#009371:13
#0093b1:00000023000000000000000000000000
#009360:00000013000000000000000000000000
#009320:0000002300000000
#0093b0:00001323
#009370:0000000000530000
#009321:00000013
#009361:0000000000000053
#010321:23
#010321:0013
#010361:00000000000000000000002300000000
#0103b0:00000000000000000000001300000000
#010370:0000000000000023
#0113b0:13230000
#011370:0053000000000000
#011321:00132300
#011361:0000005300000000
#0113b0:00001323
#011370:0000000000530000
#011321:00000013
#011361:0000000000000053
#012321:23
#012371:00000013
#0133b1:23
#013320:13230000
#013360:0053000000000000
#0133b1:00132300
#013371:0000005300000000
#013361:00000013
#014321:23
#014361:00000013
#015321:23
#0153b0:13230000
#015370:0053000000000000
#015321:00132300
#015361:0000005300000000
#015371:00000013
#0163b1:23
#016361:00130000
#016321:0000005300000000
#016351:0023
#016380:0013
#0163b0:0000000000530000
#016370:00000023
#016360:0000000000000013
#017320:00530000000000000000000000000000
#017360:00230000
#017370:0013
#0173b0:00000023
#018370:13
#0183b0:00230000
#0203b0:13000033000033000000230000000000
#020370:0000005300000000005300000000000053000000000000000000000000000000
#020361:0000001300230000
#020321:0053
#020371:0000000000000013
#0213a1:53
#021381:0053000000000000
#0213b1:00530000
#021391:0000002300000000
#021340:0000001300000000
#021360:0053
#021320:0000000000230000
#0213b1:0000000000130023
#021371:00000053
#022321:13000033000033000000230000000000
#022361:0000005300000000005300000000000053000000000000000000000000000000
#022370:0000001300230000
#0223b0:0053
#022360:0000000000000013
#023330:53
#023350:0053000000000000
#023320:00530000
#023340:0000002300000000
#023391:0000001300000000
#023371:0053
#0233b1:00000023
#024321:13230000
#024361:0053000000000000
#024370:13230000
#0243b0:0053000000000000
#0243b0:00001323
#024370:0000000000530000
#024361:00001323
#024321:0000000000530000
#0263b1:13000033000033000000230000000000
#026371:0000005300000000005300000000000053000000000000000000000000000000
#026360:0000001300230000
#026320:0053
#026370:0000000000000013
#0273a0:53
#027380:0053000000000000
#0273b0:00530000
#027390:0000002300000000
#027341:0000001300000000
#027361:0053
#027321:0000000000230000
#028321:1300002300000000
#028361:00000053000000000000000000000000
#028370:0000001300002300
#0283b0:00000000000000000053000000000000
#0293b0:1300002300000000
#029370:00000053000000000000000000000000
#029361:0000001300002300
#029321:00000000000000000053000000000000
#030341:1400000000000053000000000000000000000000000000000000000000000000
#030351:005200000000000000000000000000000000000000000000000000000000000000000000000000000052000000000000220000000000000000000000000000000000000000000000000000000000000000000000000000000000000000000000000000000000000000000000000000000000000000000000000000000000000000000000000000000000000000000000000000000000000000000000000000000000000000000000000000000000000000000000000000000000000000000000
#030390:12220000
#030380:0054000000000000
#030360:0012
#030350:000000000000000000000000000000000000000000000000000000000000000000000000000000000000000000000000000000000000000000000000000000000000000000000000000000000000000000000000000000000000000000000000000000000000520000000000000000000000000000000000000000000000000000000052005200000000000000000000220000000000000000000000000000000000000000000000000000000000000000000000000000000000000000000000
#030340:00000000000000000000005400000000
#030391:0000000000000000000000000000000013000000535200002200000000000000
#030361:0000000000000013
#031331:53
#031351:0053000000000000
#031321:00530000
#031341:0000002300000000
#031390:0000001300000000
#031370:0053
#0313b0:00000023
#0323b0:1300002300000000
#032370:00000053000000000000000000000000
#032361:0000001300002300
#032321:00000000000000000053000000000000
#033321:1300002300000000
#033361:00000053000000000000000000000000
#033370:0000001300002300
#0333b0:00000000000000000053000000000000
#034340:1400000000000053000000000000000000000000000000000000000000000000
#034350:005200000000000000000000000000000000000000000000000000000000000000000000000000000052000000000000220000000000000000000000000000000000000000000000000000000000000000000000000000000000000000000000000000000000000000000000000000000000000000000000000000000000000000000000000000000000000000000000000000000000000000000000000000000000000000000000000000000000000000000000000000000000000000000000
#034391:12220000
#034381:0054000000000000
#034361:0012
#034351:000000000000000000000000000000000000000000000000000000000000000000000000000000000000000000000000000000000000000000000000000000000000000000000000000000000000000000000000000000000000000000000000000000000000520000000000000000000000000000000000000000000000000000000052005200000000000000000000220000000000000000000000000000000000000000000000000000000000000000000000000000000000000000000000
#034341:00000000000000000000005400000000
#034390:0000000000000000000000000000000013000000535200002200000000000000
#034370:0000000000000013
#0353a0:53
#035380:0053000000000000
#0353b0:00530000
#035390:0000002300000000
#035341:0000001300000000
#035361:0053
#035321:00000023
#0363c1:12
#036381:00220000
#036320:00120000
#036360:0022
#0373c0:12
#037380:00220000
#037321:00120000
#037361:0022
#0383c1:12
#038381:00220000
#038320:00120000
#038360:0022
#0393c0:12
#039380:00220000
#039360:0013
#039320:00000023
#039371:00000013
#0403b1:23
#041321:0013
#041361:00000023
#043361:0014
#043321:00000024
#043360:00000014
#0443a0:24
#044370:0013
#0443b0:00000023
#0453b0:0013
#045370:00000023
#046320:13
#046360:00230000
#046370:0013
#0463b0:00000023
#047320:1323
#047360:00530000
#0483b0:13000023000000000000000000000000
#048360:0000005300000000000000000000000000000000000000000000000000000000
#048321:00000013000023000000000000000000
#048371:0000000000000000005300000000000000000000000000000000000000000000
#0483b0:0000001300230000
#048360:0053
#048321:0013
#048371:0000000000230000
#048371:0000000000000013
#0493a1:53
#049381:0053000000000000
#0493b1:00530000
#049391:0000002300000000
#049340:0000001300000000
#049360:0053
#049320:0000000000230000
#0493b1:0000000000130023
#049371:00000053
#050321:13000023000000000000000000000000
#050371:0000005300000000000000000000000000000000000000000000000000000000
#0503b0:00000013000023000000000000000000
#050360:0000000000000000005300000000000000000000000000000000000000000000
#050321:0000001300230000
#050371:0053
#0503b0:0013
#050360:0000000000230000
#050360:0000000000000013
#051330:53
#051350:0053000000000000
#051320:00530000
#051340:0000002300000000
#051391:0000001300000000
#051371:0053
#0513b1:00000023
#052321:13230000
#052361:0053000000000000
#052370:13230000
#0523b0:0053000000000000
#0523b0:00001323
#052370:0000000000530000
#052361:00001323
#052321:0000000000530000
#0543b1:13000023000000000000000000000000
#054361:0000005300000000000000000000000000000000000000000000000000000000
#054320:00000013000023000000000000000000
#054370:0000000000000000005300000000000000000000000000000000000000000000
#0543b1:0000001300230000
#054361:0053
#054320:0013
#054370:0000000000230000
#054370:0000000000000013
#0553a0:53
#055380:0053000000000000
#0553b0:00530000
#055390:0000002300000000
#055341:0000001300000000
#055361:0053
#055321:0000000000230000
#056321:1300002300000000
#056361:00000053000000000000000000000000
#056370:0000001300002300
#0563b0:00000000000000000053000000000000
#0573b0:1300002300000000
#057370:00000053000000000000000000000000
#057361:0000001300002300
#057321:00000000000000000053000000000000
#058321:1600000000000055000000000000000000000000000000000000000000000000
#058331:005400000000000000000000000000000000000000000000000000000000000000000000000000000054000000000000000000000000000000000000000000000000000000000000000000000000000000000000000000000000000000000000000000000000000000000000000000000000000000000000000000000000000000000000000000000000000000000000000000000000000000000000000000000000000000000000000000000000000000000000000000000000000000000000
#058341:00230000
#0583a0:12220000
#058380:0056000000000000
#058340:0013
#058330:000000000000000000000000000000000000000000000000000000000000000000000000000000000000000000000000000000000000000000000000000000000000000000000000000000000000000000000000000000000000000000000000000000000000530000000000000000000000000000000000000000000000000000000053005300000000000000000000230000000000000000000000000000000000000000000000000000000000000000000000000000000000000000000000
#058320:00000000000000000000005500000000
#058391:0000000000000000000000000000000015000000555200002200000000000000
#058361:0000000000000013
#059331:53
#059351:0053000000000000
#059321:00530000
#059341:0000002300000000
#059390:0000001300000000
#059370:0053
#0593b0:00000023
#0603b0:1300002300000000
#060370:00000053000000000000000000000000
#060361:0000001300002300
#060321:00000000000000000053000000000000
#061321:1300002300000000
#061361:00000053000000000000000000000000
#061370:0000001300002300
#0613b0:00000000000000000053000000000000
#062320:1600000000000055000000000000000000000000000000000000000000000000
#062330:005400000000000000000000000000000000000000000000000000000000000000000000000000000054000000000000000000000000000000000000000000000000000000000000000000000000000000000000000000000000000000000000000000000000000000000000000000000000000000000000000000000000000000000000000000000000000000000000000000000000000000000000000000000000000000000000000000000000000000000000000000000000000000000000
#062340:00230000
#0623a1:12220000
#062381:0056000000000000
#062341:0013
#062331:000000000000000000000000000000000000000000000000000000000000000000000000000000000000000000000000000000000000000000000000000000000000000000000000000000000000000000000000000000000000000000000000000000000000530000000000000000000000000000000000000000000000000000000053005300000000000000000000230000000000000000000000000000000000000000000000000000000000000000000000000000000000000000000000
#062321:00000000000000000000005500000000
#062390:0000000000000000000000000000000015000000555200002200000000000000
#062370:0000000000000013
#0633a0:53
#063380:0053000000000000
#0633b0:00530000
#063390:0000002300000000
#063341:0000001300000000
#063361:0053
#063321:00000023
#0643c1:12
#064381:0000000000000022
#064360:0000000000120022
#065320:12
#065360:0000000000000022
#0653a1:0000001200220000
#0663c0:12
#066380:0000000000000022
#066341:0000000000120022
#067381:0012
#067391:000000000000000000000000003200000000000000000000
#0673a1:000000000000003200000000
#0673b1:0000000000320000
#0673c1:000000000000000000000000000000003232220000000000
#068361:12
#068321:0000000000000022
#0683c0:0000000000120022
#069380:12
#0693c0:0000000000000022
#069361:0000001200220000
#070360:12
#070320:0000000000000022
#0703a1:0000000000120022
#071381:12
#0713c1:0000000000000022
#071360:0000001200220000
