This file was generated by Ched 2.7.0.0.
#TITLE ""
#ARTIST ""
#DESIGNER ""
#DIFFICULTY 0
#PLAYLEVEL
#SONGID ""
#WAVE ""
#WAVEOFFSET 0
#JACKET ""
#REQUEST "ticks_per_beat 480"
#00002: 4
#BPM01: 200
#BPM02: 160
#BPM03: 170
#BPM04: 180
#BPM05: 185
#BPM06: 190
#BPM07: 195
#BPM08: 150
#00008: 01
#06608: 00000001
#10508: 00000001
#06008: 00000002
#06108: 00000003
#06208: 00000004
#06308: 00000005
#06408: 00000006
#06508: 00000007
#09508: 00000008
#04708: 08
#TIL00: "46'960:0.75, 60'1440:0.8, 61'1440:0.85, 62'1440:0.9, 63'1440:0.925, 64'1440:0.95, 65'1440:0.975, 66'1440:1, 93'1440:0.75, 103'1440:1, 67'1440:0.01, 67'1800:1"
#VOLUME: ""
#HISPEED 00
#MEASUREHS 00
#00118:0014
#00112:1200000000000000000000000000000012000000000000000000000012525252
#00115:1212
#00114:0012001200000000
#00117:0012001200000000
#00116:00120000
#00119:0000000000000000150000000000000000000000000000000000000012525252
#0011c:0000000000000012
#00814:00161200
#0081c:0000121212000000
#00818:0000001212000000
#00816:0000000000001612
#00812:2600000000001212
#0081b:23
#01414:0013131300000000
#0141b:0013131300000000
#01415:12001212
#01412:12001212
#01418:1512121212001200
#01419:0000000000120000
#0141c:0000000000120000
#01416:0000000000120000
#01512:0000120012121212
#01515:0000120012121212
#01518:0000000016121216
#0151a:00000000000000000000001200000000
#02318:00000000120013001300120000130012
#02315:00001200000000130000000013001200
#02316:00000000001200000012000000000000
#0231c:12000000000012001200000000120000
#02319:1212000000000000
#0231b:00000000120000000000120000000012
#02313:00000000001200000012000000000000
#02312:26000000000000120000000012001200
#0331b:00000013
#03315:140000000000130000001300130000000000000000130000
#03312:000013000000000000130000
#03318:000000000000000000000000000000000000000000000000000000000000000000000000000000000000000000000000000000000000000000000000000000000000000000000000000000000000000000000000000000000000000000000000000000000000000000000000000000000000000000000000000000000000000000000000000000000000000000000000000000000000000000000000000000000000000000000000000000000000000000000000000000000000000000000000000000000000000000000000000000000000000000000000000000000000000000000000000000000000000000000000000000000000000000000000000000000000000000000000000000000000000000000000000000000000000000000000000000000000000000000000000000000000000000000000000000000000000000000000000000000000000000000000000000000000000000000000000000000000000000000000000000000000000000000000000000000000000000000000000000000000000000000000000000000000000000000000000000000000000000000000000000000000000000000000000000000000000000000000000000000000000000000000000000000000000000000000000000000000000000000073000000000000000000000000000000000000000000000000000000000000000000000000000000000000000000000000000000000000000000000000000000000000000000000000000000000000000000000000000000000000000000000000000000000000000000000000000000000000000000000000000000000000000000000000000000000000000000000000000000000000000000000000000000000000000000000000000000000000000000000000000000000000000000000000000000000000000000000000000000000000000000000000000000000000000000000000000000000000000000000000000000000000000000000000000000000000000000000000000000000000000000000000000000000000000000000000000000000000000000000000000000000000000000000000000000000000000000000000000000000000000000000000000000000000000000000000000000000000000000000000130000000000000000000000000000000000000000000000000000000000000000000000000000000000000000000000000000000000000000000000000000000000000000000000000000000000000000000000000000000000000000000000000000000000000000000000000000000000000000000000
#04816:0000120000121200
#04818:00000000000000001200001200000000
#04812:0012000000000000
#04815:0012000012000000
#04813:00120000
#04814:0000001200000000
#04817:0000001200000000
#0481b:00000052
#06819:00000012000000000000000000000000
#06812:00001c121c001c12
#06816:0000000000000012
#0681c:0012000000000000
#06815:00000000000000120000000000000000
#0681a:0000000000120000
#06817:00000000000000000000001200000000
#06919:1200001200120000
#0691a:00000000000000140000000000000000
#06915:12000013000012000000120000000000
#0691b:0013130000000000
#06918:0000000000130000000000000000000000000000000000000000000000000000
#06912:0000000000000013000000000000000000001400000000000000000000000000
#06916:0014
#0841a:0000000000000012
#08418:2300000013000000230000001300000000130000001300000000000000001200
#0841b:1300130013130000
#08415:00130000001300000013001300000000
#08412:0000000000001300000000000000130000000013000000130000000000000000
#08512:160000001c0000130000160000000000
#08518:00160000000000160013000000000000
#08516:0012000000000000
#08514:00000012000000000000000000000000
#08515:0000001300000000
#0851b:0000000000130000
#08510:00000041
#0861b:0013002300232300
#08612:0000130023000012
#08618:00001300000013130000131313000000
#08615:00000000130000131300001300001200
#08719:1212000000000012
#08717:00120000
#08716:00000000000012000012000012000000
#08718:00000000000000120000120000000000
#08715:1200000000000012
#08712:00000000140000240000000024000000
#0871c:0022000000000000
#0871a:0000240000240000
#0891b:5300001300000000
#08918:00000000230000130000001300000000
#08915:00001313230000001300130000000000
#08912:0000131300000000001300002c000000
#08916:13
#09217:00001212000012120000121200000000
#09212:13001c001c001c13
#0921b:13000000000000000000000000130013
#0921a:00001212000000000000121200000000
#09214:00000000000012120000000000000000
#00012:1212120012000000
#00015:1212120012000000
#0001c:0000000000001212
#00016:0000000000001515
#00017:0053
#05012:0012000000000000
#05014:00000012000000000000120000000000
#05016:00000000120000000000001200000000
#05013:0000001200000000
#05015:00000000000000120000000000000000
#05017:0012
#0501a:00001200000000000000001200000000
#05018:00000012000000000000000022000000
#0501b:0000001200000000
#05019:00000000000000120000000000000000
#0501c:0000000000120000
#05116:0012000000000000
#05114:00000012000000120012001200000000
#0511a:000000120000000000001200
#05112:0000121222122200
#05118:000000000000000000120000000000000000000000000000000000000000000000000000000000000000000012000000
#0511c:000000000000000000000000000000000000220000000072
#05110:00000041
#08216:14141414
#0821a:14141414
#08212:141c141c141c141c
#00412:1600130013001313
#00418:1313160016001600
#00415:0013130013001313
#0041b:13
#00518:1613131316001313
#00512:13161316
#00515:1313001313000013
#0051b:00130013
#00612:1600160016001313
#00618:1313131313131600
#00615:0000001300131313
#0061b:1313130000000000
#00712:16161316
#00718:00130000130013001600130013001300
#0071b:1313130000001300
#00715:0000001313130013
#03518:00000000130000001300120000120012
#03516:00000000000000000000001200001200
#03512:1313
#0351b:13130000
#03515:00131300
#07716:00520000520012001200000014000000
#0771b:00000052000000120000120013000000
#07718:12000052000000120000120000000000
#07712:12000014
#07715:12000052000000000000000000000000
#07713:00520000000012001200000000000000
#07717:0052000000000000
#07719:00520000520000000000000000000000
#07714:0052000000000000
#0771a:0052000000000000
#0771c:00520000
#07816:14141414
#07812:14141414
#0781b:1300130013001313
#07817:0000001300000013
#07916:14141414
#07912:14141414
#0791b:1313131313001300
#07917:0013001300000000
#08016:1400000000000000140000000053000014000053000000001400000000000000
#08012:14141414
#0801b:1300530000005313
#08017:0053005300530013
#0801a:0053000000000053005300000000000000000000000000530000000000000000
#08019:00530053005300000000005300000000
#08018:0000005300530000000000530000000000000000005300000000000000000000
#08015:00000000000000530053000000000000
#08014:0000000000000000000000000000005300530000000000000000000000000000
#08116:14141414
#08112:140014001400141c
#0811b:1313131313000000
#08117:0013001300000000
#0811a:00000014
#09012:1313132300232300
#0901b:13000013000000002300000000000000
#09015:00001300130013130000131313000000
#0901c:0000000000000012
#09018:00000013000000131300001300000000
#09019:0000000000000012
#09312:0000001c
#09315:13
#0931b:00130013131313131313131300000000
#09318:0013000000000000
#08816:1300001313000013
#0881b:13000000005300005300000000530000
#08817:0013130000131300
#0881a:00000000000000000000000013000000000000530000000000000000000000000000000000000000000000001300000000000053000000000000000000000000
#08813:00000053000000000000000000000000000000000000000000000000130000000000005300000000000000000000000000000000000000000000000013000000
#08815:00530000000000000000000000000000000000000000000000000000000000000053000000000000000000000000000000000000000000000000000000000000
#08814:0053000000000000000000000000000000530000000000000000000000000000
#08812:00530000530000000053000053000000
#08818:00000000000000000000000000000000005300000000000000000000000000000000000000000000000000000000000000530000000000000000000000000000
#08819:0000000000000000005300000000000000000000000000000053000000000000
#00215:12
#00214:0012001200000000
#00217:0012001200001212
#00216:00120000
#00219:52151200
#0021c:0012
#00212:5200000014001414
#0021a:0000000000001212
#0031c:1212001200000000
#0031a:00120000000000001200000000000000
#00318:0000120000001313
#00312:0000000054130000
#00315:0000000000131300
#0031b:0000000000000013
#0091a:1200121212000000
#00916:1200001212000000
#00912:12161200
#00918:0000000000001612
#00914:0000000000001212
#0101c:12000012
#01018:12
#01014:12
#01012:00161200
#0101a:0000121212000012
#01016:0000001212000000
#0111c:1212
#01118:12
#01114:1212
#01112:00120012
#01115:00140014
#0111a:00120012
#01117:0014
#0111b:0000001200000000
#01113:0000000000120000
#01319:0012
#0131c:0000121212000000
#01316:0000151200000000
#01313:00121500
#01312:1200000000001212
#01318:1500000000000012
#01315:12000015
#0131b:00000012
#01212:2300000000001212
#01218:2300000000000012
#01215:23000015
#0121b:23000012
#01219:0012
#0121c:0000121212000000
#01216:0000151200000000
#01213:00121500
#01919:0000120012000012
#01917:00005200000012000000000000000012
#0191c:00121200
#01914:00001300001300000000000000000000
#01912:2300231323130000
#01915:0000000000130000
#0191a:0052000000000000
#02212:12001215
#02215:1212
#02214:0012001200000000
#02217:0012001200120012
#02216:00120000
#02219:00151200
#0221c:0012
#0221a:0000000000120012
#02218:00000012
#0221b:23
#01616:1200000000000012
#0161c:00120000
#0161a:0000001200000000
#01618:0012
#01619:1200120000000012
#01617:0000001200000000
#01615:0012
#01614:00001300001300000000130000130000
#01612:2300231323002313
#01610:41
#0171c:0052120012001200
#01719:0052120012001200
#01717:0000001200000000
#01714:00001300001300000000130000130000
#01712:2300231323002313
#01817:1212
#01818:0012001200000000
#01819:0000120000005212
#0181a:1212
#0181c:0000120000005212
#01814:00001300001300000000130000130000
#01812:2300231323002313
#02012:12120012
#02014:0000001200000000
#02016:0012
#02015:1200120000001212
#02018:0000000000000012
#02017:0000001200000000
#02019:00001300001300001200130000130000
#0201b:2300231323002313
#02112:0052120012001200
#02115:0052120012001200
#02117:0000001200000000
#02119:00001300001300000000130000130000
#0211b:2300231323002313
#02612:2212000000000000
#02614:2212121200000000
#02616:0000121212120000
#02618:0000000012121212
#0261a:5400000000001212
#02712:130000000000000000000000000000000000000000000000000000000000000000000000000000000000000000000000130000000000000000000000000000000000000000000000000000000000000000000000000000000000000000000000130000000000000000000000000000000000000000000000000000000000000000000000000000000000000000000000130000000000000000000000000000000000000000000000000000000000000000000000000000000000000000000000008300000000000000000000000000000000000000000000000000000000000000000000000000000000000000000000000000000000000000000000000000000000000000000000000000000000000000000000000000000000000000000000007300000000000000000000000000000000000000000000000000000000000000000000000000000000000000000000000000000000000000000000000000000000000000000000000000000000000000000000000000000000000000000000
#02715:00130013001300130000000000000000
#0271b:1313131313000000
#02718:00130013001300130000000000000000
#0291b:001300000000
#02918:000000000000000000000000000000000000000000000000000000000000000013000000000000000000000000000000001400000000000000000000000000000000000000000000000000000000000000000000000000000000000000000000000000000000000000000000000000000000000000000000000000000000000000000000000000000000000000000000000000000000000000000000000000000000000000000000000000000000000000000000000000000000000000000000
#0291a:240000000000000000000000000000000000000000000000000000000000000000000000000000000000000000000000000000000000000000000000000000000000000000000000000000000000000000000000000000000000000000000000001400000000000000000000000000000000000000000000000000000000000000000000000000000000000000000000000000000000000000000000000000000000000000000000000000000000000000000000000000000000000000000000140000000000000000000000000000000000000000000000000000000000000014000000000000000000000000000000000000000000000000000000000000001400000000000000000000000000000000000000000000000000000000000000140000000000000000000000000000000000000000000000000000000000000000000000000000000000000000000000000000000000000000000000000000000000000000000000000000000000000000000000000000000000000000000000
#02912:24000053
#02915:00000053
#0301a:240014140014140000000000
#03012:240014140000140014140000
#03218:131313000000001313000000
#0321b:131300000000000000000000
#03215:000013000013131313000000
#03212:540000000013130000000013
#0341b:1313130013131300
#03415:0016001600160016
#03412:1300131313001313
#04316:14141414141414142414141414141414
#04312:00535353535353535353535353535353
#0431b:00535353535353535353535353535353
#04714:00000012
#0471a:00000012
#04919:0012120000120000
#04916:00000012000000000000120000000000
#0491b:0000001200002200
#04918:0000001200002200
#04917:0022
#0491a:0022
#04913:00000052
#05218:000012000000220000000072000000000000000000000000
#05216:000000001200000012000000220000000072000000001200
#05214:000000000012001200001200
#05212:000000000000000000000000000000001200220000000072
#0521a:220000000072000000000000000000000000000000000000
#05316:000012000000220000000072000000000000000000000000
#05318:000000001200000012000000220000000072260000001276
#0531a:000000000012001200001200
#0531c:000012
#05314:220000000072000000000000000000000000000000000000
#05418:000012000000260000001276000012000000000000000000
#0541a:001212000000
#05416:260000000076000000000000260000001276000000001200
#05414:000000000012
#05412:000000000000000000000000000000000000260000000076
#05516:000012000000000000001200000012000000280000001278
#05514:260000001276000012000000260000000076000000000000
#05518:000000001212
#05512:000000000000260000000076000000000000000000000000
#05616:000012000000280000001278000012000000000000001200
#05618:001212001212
#05612:2800000000780000000000002800000000782c0000000000
#05712:261200260000000000560000
#05714:001200000000
#05718:000000001200260012000012
#0571a:000000000012001200001200
#0571c:00000022
#05814:001200000000000000000012
#05812:260012240000000000540000
#05816:000012000012
#05818:000000000012260000260000
#0581c:000000520000001200000000
#0581a:000012
#05914:001200001200000000240000
#05916:000012000012000000000000
#0591a:000000000000001200000000
#0591c:000012
#0591b:000000000013
#05918:000000560000260000130013
#05915:000000000000000000000013
#0591f:00000011
#05912:26000000000022000000000000000000007c000000000000
#0601b:130013000013001300001300
#06018:001300130013001300130013
#06015:001300001300130013000000
#06012:000000260000000000260013
#0611b:131300000013
#06118:001300130013001300130013
#06112:001300260013001300260000
#06115:000000001300130013000013
#0621b:130013000013001300001300
#06218:001300130013001300130013
#06215:001300001300130013000000
#06212:000000260000000000260013
#0631b:131300000013
#06318:001300130013001300130000
#06312:001326260013231300260000
#06315:000000001300130013000013
#06418:130000001300001300130000
#0641b:001300130000130000001300
#06415:000013000013000013000013
#06412:26262626
#06518:13131313
#0651b:001300000013001300130000
#06515:001313001300
#06516:0000000000000014
#06512:26262626
#07019:00000012000012000000220000000000
#0701c:00002200000052001200001200000000
#07012:0000000054000012
#07015:0000000000000012
#0701f:21
#07016:0000005200005200
#07116:12000012000000000000000000000000
#07118:0012000000000000
#07119:52000000121200000000120012000000
#07115:0000001200005200
#07117:00000000000000000000001200000000
#0711c:00000000121200000000000000000000
#07112:0000001200005200
#07110:41
#07215:13001300130000130000130013000013
#07218:13000013000013001300001313001300
#0721b:13231323
#07212:00132300
#07315:13000000130000001313131300000000
#07318:13001313000000130000000000000000
#07312:23130000
#0731b:0000231300000000
#07512:00000000121200000000000000001300
#07515:52000000121200000000120012001300
#07518:12000012000000000000000000001300
#07516:0012000000000000
#07519:0000001200005200
#07517:00000000000000000000001200000000
#0751c:0000001200005200
#07615:13000013000013000000130000005300
#07618:13001300000000000000001600002600
#0761b:13
#07612:0000130000120052
#07619:00000000000000121200000000000000
#0761c:00000000000000121200000000000000
#08316:14141400
#0831a:14141400
#08312:14001c0014001c0014001c0000000013
#0831b:00000013
#08315:00000000000000000000000000130000
#08318:0000000000002313
#09115:1212000000000012
#09117:00120000
#09118:00000000000012000012000012000000
#09116:00000000000000120000120000000000
#09119:1200000000000012
#0911a:00000000140000240000000024000000
#09112:0022240000240000
#10118:000000220000520000001200
#10116:000000000000000000000012
#10115:22222252
#10112:22005222
#1011a:00000022
#1011b:00220000
#10119:52
#1021a:000012000000220000220000
#10218:001200000012000000000000
#10216:000000001200001200220000
#10214:220000220000000012001212
#1021c:22220000
#10212:00002222
#10316:001212000000220000000000
#1031a:000000001212220000000000
#10318:220000220000001212220000
#10314:22220022
#1031c:22220022
#10312:0022
#02812:000000000000000000000000000000000000000000000000000000000000000000000000000000000000000000000000000000000000000000000000000000001300000000000000000000000000000000000000000000000000000000000000001400000000000000000000000000000000000000000000000000000000000000000000000000000000000000000000000000000000000000000000000000000000000000000000000000000000000000000000000000000000000000000000140000000000000000000000000000000000000000000000000000000000000014000000000000000000000000000000000000000000000000000000000000001400000000000000000000000000000000000000000000000000000000000000140000000000000000000000000000000000000000000000000000000000000000000000000000000000000000000000000000000000000000000000000000000000000000000000000000000000000000000000000000000000000000000000
#02815:001300000000
#02814:000000000000000000000000000000000000000000000000000000000000000000000000000000000000000000000000001400000000000000000000000000000000000000000000000000000000000000000000000000000000000000000000000000000000000000000000000000000000000000000000000000000000000000000000000000000000000000000000000000000000000000000000000000000000000000000000000000000000000000000000000000000000000000000000
#02810:41
#02818:00000053
#0281b:00000053
#10615:0000130013001300000013000000130000001300230013000000001300000000
#10612:00230023002300230023132300230000
#10618:1300000023000000130000000000000013000000000000000013000013002300
#10613:0000001300000000
#1061b:23000000230000002300000023002313
#10616:0000002300000000
#10515:00000000000000000000000000130013
#10517:0000000000000013
#10518:72000013
#1051a:0000000000000023
#1051b:00000023
#10512:00000000000000000000000000230023
#1051c:000000000000000000000000000000000000000000000000000000000000000000000000000000000000000000000000000000000000000000000000000000000000000000000000000000000000000000000000000000000000000000000082720000000000000000000000000000000000000000000000000000000000000000000000000000000000000000000000000000000000000000000000000000000000000000000000000000000000000000000000000000000000000000000000000000000000000000000000000000000000000000000000000000000000000000000000000000000000000000000000000000000000000000000000000000000000000000000000000000000000000000000000000000000000000000000000000000000000000000000000000000000000000000000000000000000000000000000000000000000000000000000000000000000000000000000000000000000000000000000000000000000000000000000000000000000000000000000000
#10715:0000130000002300000013000000130000230000002300000000000000000000
#10718:13001313130013000013001300000000
#10712:0000230000000000000023000000230000000013000000132c00000000000000
#1071b:2323232323230000
#0361b:0013000000000000
#03612:2c0012122a000000
#03616:0000121200130000
#03618:00001300001400000000000012001200
#0361c:0012
#03619:0000000000130000
#03614:0000000000001212
#0361a:00000000000000000000000000140000
#03912:1c0012121a000000
#03919:0013000000000000
#03916:0013121200000000
#03918:00000000001400000000000012001200
#03914:0000000000131212
#0391a:00000000000000000000000000140000
#03917:0000000000130000
#0391c:0022
#03814:00000000001400001a00000012001200
#03816:18000000000000000000000000140000
#03812:2413121222000000
#0381a:0000121200000000
#0381b:0013000000130000
#03818:0000000000130000
#0381c:0000000000001212
#03718:0000000016001212
#0371a:1400121200000000
#03717:0013000000000000
#03716:0000121200000000
#0371c:00000000001200000000000012001200
#03714:0013000000000000
#03715:0000000000130000
#03712:28000000000000002600130000140000
#04012:18001300000000001600130000140000
#04016:0000121200000000
#0401a:2400121200000000
#0401c:00000000001200000000000012001200
#04015:0013000000000000
#04018:0000000026001212
#0401b:0000000000130000
#04010:41
#04112:1400121212000000
#0411a:0000121200000000
#04114:00000000001400002a00000012001200
#04118:0013000000000000
#0411b:0013000000000000
#0411c:0000000000001212
#04116:28000000000000000000130000140000
#04119:0000000000130000
#0421c:0012
#04212:2c0012122a130000
#04216:0000121200000000
#04218:00000000001400000000000012001200
#04214:0013000000001212
#04217:0013000000000000
#0421a:00000000000000000000000000140000
#04215:0000000000130000
#0311a:1414141414141400
#03112:1454
#03116:00540054
#07415:00000012000012000000220000000000
#07412:00002200000052001200001200000000
#0741c:0000000000000012
#07419:0000000000000012
#07418:0000005200005200
#0741a:0054
#09814:0013
#09812:13220000
#0981a:00220000
#09817:00220000
#09816:00000022
#0981c:00000022
#09819:00000022
#09913:13
#09918:0013
#0991c:00000022
#09916:00000022
#0991b:00220000
#09912:00220000
#09915:00220000
#09919:00000022
#06618:130000130000130000000000130000130000000052520000
#06615:00000013000000000000001300000000
#06616:0000001400000000
#0661b:130000000000130000000000130000000000000000525200
#06612:26262626
#06619:000000000000000000000000000000000000005200000000
#0661c:000000000052
#06617:000000000000000000000000000000000000000000005252
#0661a:000000000000000000000000000000000000000000000052
#04412:1c
#02412:2222
#02414:22222222
#02416:00220022
#0241c:000000000000000000000000000000000000000000000000000000000000000000000000000000000000000000000000000000000000000000000000000000000000000000000000000000000000000000000000000000000000000000000000520000000000000000000000000000000000000000000000000000000000000000000000000000000000000000000000000000000000000000000000000000000000000000000000000000000000000000000000000000000000000000000072000000000000000000000000000000000000000000000000000000000000000000000000000000000000000000000000520000000000000000000000000000000000000000000000000000000000000000000000000000000000000000000072000000000000000000000000000000000000000000000000000000000000000000000000000000000000000000000000520000000000000000000000000000000000000000000000000000000000000000000000000000000000000000000072
#02418:000000000000000000000000000000000000000000000000000000000000000000000000000000000000000000000000000000000000000000000000000000000000000000000000000000000000000000000000000000000000000000000072540000000000000000000000000000000000000000000000000000000000000000000000000000000000000000000000000000000000000000000000000000000000000000000000000000000000000000000000000000000000000000000000520000000000000000000000000000000000000000000000000000000000000000000000000000000000000000000072540000000000000000000000000000000000000000000000000000000000000000000000000000000000000000000000520000000000000000000000000000000000000000000000000000000000000000000000000000000000000000000072540000000000000000000000000000000000000000000000000000000000000000000000000000000000000000000000
#0241a:00005454
#10013:22225222
#10019:52222222
#10016:22522252
#1001c:00220052
#02512:2222
#02514:22222222
#02516:00220022
#02518:520000000000000000000000000000000000000000000000000000000000000000000000000000000000000000000000000000000000000000000000000000000000000000000000000000000000000000000000000000000000000000000072540000000000000000000000000000000000000000000000000000000000000000000000000000000000000000000000000000000000000000000000000000000000000000000000000000000000000000000000000000000000000000000000520000000000000000000000000000000000000000000000000000000000000000000000000000000000000000000072540000000000000000000000000000000000000000000000000000000000000000000000000000000000000000000000520000000000000000000000000000000000000000000000000000000000000000000000000000000000000000000072540000000000000000000000000000000000000000000000000000000000000000000000000000000000000000000000
#0251c:000000000000000000000000000000000000000000000000000000000000000000000000000000000000000000000000000000000000000000000000000000000000000000000000000000000000000000000000000000000000000000000000520000000000000000000000000000000000000000000000000000000000000000000000000000000000000000000000000000000000000000000000000000000000000000000000000000000000000000000000000000000000000000000072000000000000000000000000000000000000000000000000000000000000000000000000000000000000000000000000520000000000000000000000000000000000000000000000000000000000000000000000000000000000000000000072000000000000000000000000000000000000000000000000000000000000000000000000000000000000000000000000520000000000000000000000000000000000000000000000000000000000000000000000000000000000000000000072
#0251a:540000000000000000000000000000000000000000000000000000000000000000000000000000000000000000000000000000000000000000000000000000000000000000000000000000000000000000000000000000000000000000000000000000000000000000000000000000000000000000000000000000000000000000000000000000000000000000000000000000000000000000000000000000000000000000000000000000000000000000000000000000000000000000000000540000000000000000000000000000000000000000000000000000000000000000000000000000000000000000000000000000000000000000000000000000000000000000000000000000000000000000000000000000000000000000000000540000000000000000000000000000000000000000000000000000000000000000000000000000000000000000000000000000000000000000000000000000000000000000000000000000000000000000000000000000000000000000000072
#09513:00000022
#0951c:00000022
#09519:00000022
#09619:00220000
#09612:00220000
#09616:00220000
#09614:00000022
#0961c:00000022
#09617:00000022
#09716:00222200
#0971c:00220000
#09719:00222200
#09713:0022
#09715:00000022
#0971b:00000022
#09718:00000022
#06716:525200000000005252000052520000005252000000000000
#06719:000000000000000000000000000000005200000000000000000000000000000052000000000000000000000000000000000000000000000000000000000000000000000000000000000000000000000000000000000000000000000000000000000000000000000000000000000000000000000000000000000000000000000000000000000000000000000000000000000000000000000000000000000000000000000000000000000000000000000000000000000000000000000000000000000000000000000000000000000000000000000000000000000000000000000000000000000000000000000000000000000000000000000000000000000000000000000000000000000000000000000052000000000000000000000000000072000000000000000000000000000000000000000000000000000000000000000000000000000000000000000000000000000000000000000000000000000000000000000000000000000000000000000000000000000000000000000000000000
#0671a:52
#06715:000052520000000000525200000052520000000000000000
#06718:000000525200000000000000000000525200000000000000
#06714:000000005252000000000000525200000000000000000000
#06717:000000000052520000000000005252000000000000000000
#06713:000000000000525200005252000000000000000000000000
#06712:0000000000000000525200000000000000005c0000000000
#10414:000000000000000000000000000000000000000000000000000000000000000000000000000000000000000000000000000000000000000000000000000000000000000000000000000000000000000000000000000000000000000000000000000000000000000000000000000000000000000000000000000000000000000000000000000000000000000000000000000000000000000000000000000000000000000000000000000000000000000000000000000000000000000000000000000000000000000000000000000000000000000000000000000000000000000000000000000000000000000000000000000000000000000000000000000000000000000000000000000000000000000000000000000000000000000000000082720000000000000000000000000000000000000000000000000000000000000000000000000000000000000000000000000000000000000000000000000000000000000000000000000000000000000000000000000000000000000000000000
#10418:000000000000000000000000000000000000000000000000000000000000000000000000000000000000000000000000000000000000000000000000000000000000000000000000000000000000000000000000000000000000000000000000000000000000000000000000000000000000000000000000000000000000000000000000000000000000000000000000000000000000000000000000000000000000000000000000000000000000000000000000000000000000000000000000000000000000000000000000000000000000000000000000000000000000000000000000000000000000000000000000000000000000000000000000000000000000000000000000000000000000000000000000000000000000000000000000000000000000000000000000000000000000000000000000000000000000000000000000000000000000000000000000000000000000000000000000000000000000000000000000000000000000000000000000000000000000000000000082
#00158:0014
#00854:0012
#04856:00000012
#05058:00000012
#08256:14141414
#0825a:1414
#08252:00140014
#08652:1c
#0875a:0000140000140000
#08752:00000000000000140000000014000000
#08952:0000001c
#09252:001c1c1c
#00452:16
#00458:00161616
#00558:1616
#00552:00160016
#00652:16161600
#00658:00000016
#00752:16160016
#00758:0016
#0515a:00120000
#05954:00000014
#06852:001c1c1c
#07856:14141414
#07852:14141414
#07956:14141414
#07952:14141414
#08056:14141414
#08052:14141414
#08156:14141414
#08152:14141414
#08552:00001c0000360000
#08558:00000000000000460000000000000000
#0095a:12
#00952:0012
#0105c:12
#01052:0012
#01359:0012
#01355:12
#01452:00000012
#01455:00000012
#01458:00000012
#01259:0012
#01658:0012
#01659:0000000000000052
#01656:0000000000000052
#01655:0012
#01759:0012
#0175c:0012
#01857:0052
#0185a:0052
#01859:0000000000000052
#0185c:0000000000000052
#01959:0012
#0195c:0012
#01952:0000000000130000
#01955:0000000000130000
#02056:0012
#02055:0000000000000062
#02058:0000000000000062
#02059:0012
#02155:0012
#02152:0012
#02858:13
#02855:13
#0285b:13
#02854:000000000000000000000000000000000000000000000000000000000000000000000000000000000000000000000000005400000000000000000000000000000000000000000000000000000000000000000000000000000000000000000000000000000000000000000000000000000000000000000000000000000000000000000000000000000000000000000000000000000000000000000000000000000000000000000000000000000000000000000000000000000000000000000000
#02852:000000000000000000000000000000000000000000000000000000000000000000000000000000000000000000000000000000000000000000000000000000000000000000000000000000000000000000000000000000000000000000000000005400000000000000000000000000000000000000000000000000000000000000000000000000000000000000000000000000000000000000000000000000000000000000000000000000000000000000000000000000000000000000000000000000000000000000000000000000000000000000000000000000000000000000000000000000000000000000000000000000000000000000000000000000000000000000000000000000000000000000000000000000000000000000000000000000000000000000000000000000000000000000000000000000000000000000000000000000000000000000000000000000000000000000000000000000000000000000000000000000000000000000000000000000000000000000000000
#02958:000000000000000000000000000000000000000000000000000000000000000000000000000000000000000000000000006400000000000000000000000000000000000000000000000000000000000000000000000000000000000000000000000000000000000000000000000000000000000000000000000000000000000000000000000000000000000000000000000000000000000000000000000000000000000000000000000000000000000000000000000000000000000000000000
#0295a:000000000000000000000000000000000000000000000000000000000000000000000000000000000000000000000000000000000000000000000000000000000000000000000000000000000000000000000000000000000000000000000000006400000000000000000000000000000000000000000000000000000000000000000000000000000000000000000000000000000000000000000000000000000000000000000000000000000000000000000000000000000000000000000000000000000000000000000000000000000000000000000000000000000000000000000000000000000000000000000000000000000000000000000000000000000000000000000000000000000000000000000000000000000000000000000000000000000000000000000000000000000000000000000000000000000000000000000000000000000000000000000000000000000000000000000000000000000000000000000000000000000000000000000000000000000000000000000000
#0305a:00540014
#03052:00005414
#03358:0016
#03355:54530000
#0355b:13130000
#03552:1313
#03555:00130000
#03558:0013
#0495b:00000012
#06052:00160016
#06152:00160016
#06252:00160016
#06352:00160016
#06452:16161616
#06552:16161616
#06652:16161616
#06752:0000001c
#02458:0000440000440044
#0245a:00003434
#0255a:34003434
#02558:0000440000440044
#0265a:14
#07458:16
#07452:16
#07759:00120000
#07756:00120014
#0775c:00120000
#07752:00000014
#08356:14141400
#0835a:1414
#08352:00140000
#09152:0000140000140000
#0915a:00000000000000140000000014000000
#10752:0000001c
#03652:1c1a
#0365c:0012
#03752:1816
#0375a:14
#03758:0016
#03852:1412
#03856:18
#03854:001a
#03952:1c1a
#0395c:0012
#04052:1816
#0405a:14
#04058:0016
#04152:1412
#04156:18
#04154:001a
#04252:1c1a
#0425c:0012
#03152:14
#0315a:54545454
#09352:0000003c
#07052:1c
#04757:00000012
#0475a:00000012
#04754:00000012
#04452:5c
#0003b0:13
#000390:0033000000000000
#000370:00332300
#003320:1424
#016390:0000000000000012
#0173c0:0022000000000000
#016361:0000000000000012
#017391:0022000000000000
#018371:0012
#018391:00000022
#0183a0:0012
#0183c0:00000022
#018390:0000000000000012
#019370:0022000000000000
#0183c1:0000000000000012
#0193a1:0022000000000000
#020351:0000000000000012
#021321:0022000000000000
#020380:0000000000000012
#021350:0022000000000000
#0243a0:12
#0253a0:000000000000000000000000000000000000000000000000000000000000000000000000000000000000000000000000000000000000000000000000000000000000000000000000000000000000000000000000000000000000000000000000000000000000000000000000000000000000000000000000000000000000000000000000000000000000000000000000000000000000000000000000000000000000000000000000000000000000000000000000000000000000000000000000000000000000000000000000000000000000000000000000000000000000000000000000000000000000000000000000000000000000000000000000000000000000000000000000000000000000000000000000000000000000000000000000000000000000000000000000000000000000000000000000000000000000000000000000000000000000000000000000000000000000000000000000000000000000000000000000000000000000000000000000000000000000000000000022
#024381:120000000000000000000000000000000000000000000000000000000000000000000000000000000000000000000000000000000000000000000000000000000000000000000000000000000000000000000000000000000000000000000022000000000000000000000000000000000000000000000000000000000000000000000000000000000000000000000000000000000000000000000000000000000000000000000000000000000000000000000000000000000000000000000000000000000000000000000000000000000000000000000000000000000000000000000000000000000000000000000000000000000000000000000000000000000000000000000000000000000000000000000000000000000000000000000000000000000000000000000000000000000000000000000000000000000000000000000000000000000000000000000000000000000000000000000000000000000000000000000000000000000000000000000000000000000000000000000000
#0243c1:000000000000000000000000000000000000000000000000000000000000000000000000000000000000000000000000000000000000000000000000000000000000000000000000000000000000000000000000000000000000000000000000120000000000000000000000000000000000000000000000000000000000000000000000000000000000000000000000000000000000000000000000000000000000000000000000000000000000000000000000000000000000000000000022000000000000000000000000000000000000000000000000000000000000000000000000000000000000000000000000000000000000000000000000000000000000000000000000000000000000000000000000000000000000000000000000000000000000000000000000000000000000000000000000000000000000000000000000000000000000000000000000000000000000000000000000000000000000000000000000000000000000000000000000000000000000000000000000
#024381:000000000000000000000000000000000000000000000000000000000000000000000000000000000000000000000000000000000000000000000000000000000000000000000000000000000000000000000000000000000000000000000000000000000000000000000000000000000000000000000000000000000000000000000000000000000000000000000000000000000000000000000000000000000000000000000000000000000000000000000000000000000000000000000000120000000000000000000000000000000000000000000000000000000000000000000000000000000000000000000022000000000000000000000000000000000000000000000000000000000000000000000000000000000000000000000000000000000000000000000000000000000000000000000000000000000000000000000000000000000000000000000000000000000000000000000000000000000000000000000000000000000000000000000000000000000000000000000000
#0243c1:000000000000000000000000000000000000000000000000000000000000000000000000000000000000000000000000000000000000000000000000000000000000000000000000000000000000000000000000000000000000000000000000000000000000000000000000000000000000000000000000000000000000000000000000000000000000000000000000000000000000000000000000000000000000000000000000000000000000000000000000000000000000000000000000000000000000000000000000000000000000000000000000000000000000000000000000000000000000000000000000120000000000000000000000000000000000000000000000000000000000000000000000000000000000000000000022000000000000000000000000000000000000000000000000000000000000000000000000000000000000000000000000000000000000000000000000000000000000000000000000000000000000000000000000000000000000000000000000
#024381:000000000000000000000000000000000000000000000000000000000000000000000000000000000000000000000000000000000000000000000000000000000000000000000000000000000000000000000000000000000000000000000000000000000000000000000000000000000000000000000000000000000000000000000000000000000000000000000000000000000000000000000000000000000000000000000000000000000000000000000000000000000000000000000000000000000000000000000000000000000000000000000000000000000000000000000000000000000000000000000000000000000000000000000000000000000000000000000000000000000000000000000000000000000000000000000000120000000000000000000000000000000000000000000000000000000000000000000000000000000000000000000022000000000000000000000000000000000000000000000000000000000000000000000000000000000000000000000000
#0243c1:000000000000000000000000000000000000000000000000000000000000000000000000000000000000000000000000000000000000000000000000000000000000000000000000000000000000000000000000000000000000000000000000000000000000000000000000000000000000000000000000000000000000000000000000000000000000000000000000000000000000000000000000000000000000000000000000000000000000000000000000000000000000000000000000000000000000000000000000000000000000000000000000000000000000000000000000000000000000000000000000000000000000000000000000000000000000000000000000000000000000000000000000000000000000000000000000000000000000000000000000000000000000000000000000000000000000000000000000000000000000000000000000120000000000000000000000000000000000000000000000000000000000000000000000000000000000000000000022
#025381:120000000000000000000000000000000000000000000000000000000000000000000000000000000000000000000000000000000000000000000000000000000000000000000000000000000000000000000000000000000000000000000022000000000000000000000000000000000000000000000000000000000000000000000000000000000000000000000000000000000000000000000000000000000000000000000000000000000000000000000000000000000000000000000000000000000000000000000000000000000000000000000000000000000000000000000000000000000000000000000000000000000000000000000000000000000000000000000000000000000000000000000000000000000000000000000000000000000000000000000000000000000000000000000000000000000000000000000000000000000000000000000000000000000000000000000000000000000000000000000000000000000000000000000000000000000000000000000000
#0253c1:000000000000000000000000000000000000000000000000000000000000000000000000000000000000000000000000000000000000000000000000000000000000000000000000000000000000000000000000000000000000000000000000120000000000000000000000000000000000000000000000000000000000000000000000000000000000000000000000000000000000000000000000000000000000000000000000000000000000000000000000000000000000000000000022000000000000000000000000000000000000000000000000000000000000000000000000000000000000000000000000000000000000000000000000000000000000000000000000000000000000000000000000000000000000000000000000000000000000000000000000000000000000000000000000000000000000000000000000000000000000000000000000000000000000000000000000000000000000000000000000000000000000000000000000000000000000000000000000
#025381:000000000000000000000000000000000000000000000000000000000000000000000000000000000000000000000000000000000000000000000000000000000000000000000000000000000000000000000000000000000000000000000000000000000000000000000000000000000000000000000000000000000000000000000000000000000000000000000000000000000000000000000000000000000000000000000000000000000000000000000000000000000000000000000000120000000000000000000000000000000000000000000000000000000000000000000000000000000000000000000022000000000000000000000000000000000000000000000000000000000000000000000000000000000000000000000000000000000000000000000000000000000000000000000000000000000000000000000000000000000000000000000000000000000000000000000000000000000000000000000000000000000000000000000000000000000000000000000000
#0253c1:000000000000000000000000000000000000000000000000000000000000000000000000000000000000000000000000000000000000000000000000000000000000000000000000000000000000000000000000000000000000000000000000000000000000000000000000000000000000000000000000000000000000000000000000000000000000000000000000000000000000000000000000000000000000000000000000000000000000000000000000000000000000000000000000000000000000000000000000000000000000000000000000000000000000000000000000000000000000000000000000120000000000000000000000000000000000000000000000000000000000000000000000000000000000000000000022000000000000000000000000000000000000000000000000000000000000000000000000000000000000000000000000000000000000000000000000000000000000000000000000000000000000000000000000000000000000000000000000
#025381:000000000000000000000000000000000000000000000000000000000000000000000000000000000000000000000000000000000000000000000000000000000000000000000000000000000000000000000000000000000000000000000000000000000000000000000000000000000000000000000000000000000000000000000000000000000000000000000000000000000000000000000000000000000000000000000000000000000000000000000000000000000000000000000000000000000000000000000000000000000000000000000000000000000000000000000000000000000000000000000000000000000000000000000000000000000000000000000000000000000000000000000000000000000000000000000000120000000000000000000000000000000000000000000000000000000000000000000000000000000000000000000022000000000000000000000000000000000000000000000000000000000000000000000000000000000000000000000000
#0253c1:000000000000000000000000000000000000000000000000000000000000000000000000000000000000000000000000000000000000000000000000000000000000000000000000000000000000000000000000000000000000000000000000000000000000000000000000000000000000000000000000000000000000000000000000000000000000000000000000000000000000000000000000000000000000000000000000000000000000000000000000000000000000000000000000000000000000000000000000000000000000000000000000000000000000000000000000000000000000000000000000000000000000000000000000000000000000000000000000000000000000000000000000000000000000000000000000000000000000000000000000000000000000000000000000000000000000000000000000000000000000000000000000120000000000000000000000000000000000000000000000000000000000000000000000000000000000000000000022
#027321:000000000000000000000000000000000000000000000000000000000000000000000000000000000000000000000000000000000000000000000000000000000000000000000000000000000000000000000000000000000000000000000000000000000000000000000000000000000000000000000000000000000000000000000000000000000000000000000000000000000000000000000000000000000000000000000000000000000000000000000000000000000000000000000000130000000000000000000000000000000000000000000000000000000000000000000000000000000000000000000000000000000000000000000000005300000000000000000000000000000000000000000000000000000000000000000000330000000000000000000000000000000000000000000000000000000000000000000000000000000000000000000000000000000000000000000000000000000000000000000000000000000000000000000000000000000000000000000000
#027351:0000000000000000000000000000000000530000330000000053000000000000
#028351:23
#027320:000000000000000000000000000000000000000000000000000000000000000000000000000000000000000000000000000000000000000000000000000000000000000000000000000000000000000000000000000000000000000000000000000000000000000000000000000000000000000000000000000000000000000000000000000000000000000000000000000000000000000000000000000000000000000000000000000000000000000000000000000000000000000000000000001300000000000000000000000000000000000000000000000000000000000000000000000000000000000000000000000000000000000000000000530000000000000000000000000000000000000000000000000000000000000000000053000000000000000000000000000000000000000000000000000000000000000000000000000000000000000000000000000000000000000000000000000000000000000000000000000000000000000000000000000000000000000000000000
#027380:0000000000000000000000000000000000530000330000000053000000000000
#028380:23
#027322:000000000000000000000000000000000000000000000000000000000000000000000000000000000000000000000000000000000000000000000000000000000000000000000000000000000000000000000000000000000000000000000000000000000000000000000000000000000000000000000000000000000000000000000000000000000000000000000000000000000000000000000000000000000000000000000000000000000000000000000000000000000000000000000000000000000000000000000000000000000000000000000000000000000000000000000000000000000000000000000000000000000000000000000000000000000000000000000000000000000000000000000000000000000000000000000000001300000000000000000000000000000000000000000000000000000000000000000000000000000000000000000000000000000000000000000000000000000000000000000000000000000000000000000000000000000000000000000000
#0273b2:0000000000000000000000000000000000000000000000000053000000000000
#0283b2:23
#028320:000000000000000000000000000000000000000000000000000000000000000000000000000000000000000000000000000000000000000000000000000000000000000000000000000000000000000000000000000000000000000000000000135400000000000000000000000000000000000000000000000000000000000000000000000000000000000000000000000000000000000000000000000000000000000000000000000000000000000000000000000000000000000000000000000000000000000000000000000000000000000000000000000000000000000000000000000000000000000000000000000000000000000000000000000000000000000000000000000000000000000000000000000000000000000000000000000000000000000000000000000000000000000000000000000000000000000000000000000000000000000000000000000000000000000000000000000000000000000000000000000000000000000000000000000000000000000000000000
#028380:000000000000000000000000000000000000000000000000000000000000000000000000000000000000000000000000000000000000000000000000000000000000000000000000000000000000000000000000000000000000000000000054530000000000000000000000000000000000000000000000000000000000000000000000000000000000000000000000230000000000000000000000000000000000000000000000000000000000000000000000000000000000000000000000
#028352:00130000
#028342:000000000000000000000000000000000000000000000000000000000000000000000000000000000000000000000000005400000000000000000000000000000000000000000000000000000000000000000000000000000000000000000000000000000000000000000000000000000000000000000000000000000000000000000000000000000000000000000000000000000000000000000000000000000000000000000000000000000000000000000000000000000000000000000000
#0283a2:000000000000000000000000000000000000000000000000000000000000000000000000000000000000000000000000000000000000000000000000000000000000000000000000000000000000000000000000000000000000000000000000000000000000000000000000000000000000000000000000000000000000000000000000000000000000000000000000000000000000000000000000000000000000000000000000000000000000000000000000000000000000000000000054000000000000000000000000000000000000000000000000000000000000000000000000000000000000000000000000000000000000000000000000000000000000000000000000000000000000000000000000000000000000000000000000000000000000000000000000000000000000000000000000000000000000000000000000000000000000000000000000000000000000000000000000000000000000000000000000000000000000000000000000000000000000000000000000
#0283b2:00005323
#0293b2:00130000
#0293a2:000000000000000000000000000000000000000000000000000000000000000000000000000000000000000000000000000000000000000000000000000000000000000000000000000000000000000000000000000000000000000000000000005400000000000000000000000000000000000000000000000000000000000000000000000000000000000000000000000000000000000000000000000000000000000000000000000000000000000000000000000000000000000000000000000000000000000000000000000000000000000000000000000000000000000000000000000000000000000000000000000000000000000000000000000000000000000000000000000000000000000000000000000000000000000000000000000000000000000000000000000000000000000000000000000000000000000000000000000000000000000000000000000000000000000000000000000000000000000000000000000000000000000000000000000000000000000000000000
#029342:000000000000000000000000000000000000000000000000000000000000000000000000000000000000000000000000000000000000000000000000000000000000000000000000000000000000000000000000000000000000000000000054000000000000000000000000000000000000000000000000000000000000000000000000000000000000000000000000000000000000000000000000000000000000000000000000000000000000000000000000000000000000000000000000
#029352:00005323
#029380:000000000000000000000000000000000000000000000000000000000000000000000000000000000000000000000000135400000000000000000000000000000000000000000000000000000000000000000000000000000000000000000000000000000000000000000000000000000000000000000000000000000000000000000000000000000000000000000000000000000000000000000000000000000000000000000000000000000000000000000000000000000000000000000000
#029320:000000000000000000000000000000000000000000000000000000000000000000000000000000000000000000000000000000000000000000000000000000000000000000000000000000000000000000000000000000000000000000000000000000000000000000000000000000000000000000000000000000000000000000000000000000000000000000000000000000000000000000000000000000000000000000000000000000000000000000000000000000000000000000000054530000000000000000000000000000000000000000000000000000000000000000000000000000000000000000000000000000000000000000000000000000000000000000000000000000000000000000000000000000000000000000000000230000000000000000000000000000000000000000000000000000000000000000000000000000000000000000000000000000000000000000000000000000000000000000000000000000000000000000000000000000000000000000000000
#0303a0:000000000000140000000000000000543400240000000000
#030320:000000000000000000543400340000000000000000000000
#0313a0:14
#031360:0054240000000000
#0313a2:00140000
#031322:0000005424000000
#0313a0:0014
#031360:0000000000542400
#0313a2:00000014
#031322:0000000000000054
#032322:24
#033352:14
#0333a2:000000000000000000000000000000000000000000000000000000000000000000000000000000000000000000000000000000000000000000000000000000000000000000000000000000000000000000000000000000000000000000000000000000000000000000000000000000000000000000000000000000000000000000000000000000000000000000000000000000000000000000000000000000000000000000000000000000000000000000000000000000000000000000000000000000000000000000000000000000000000000000000000000000000000000000000000000000000000000000000000000000000000000000000000000000000000000000000000000000000000000000000000000000000000000000000000000000000000000000000000000000000000000000000000000000000000000054000000000000000000000000000000000000000000000000000000000000000000000000000000000000000000000000000000000000000000000000000000000000000000000000000000000000000000000000000000000000000000000000000000000000000000000000000000000000000000000000000000000000000000000000000000000000000000000000000000000000000000000000000000340000000000000000000000000000000000000000000000000000000000000000000000000000000000000000000000000000000000000000000000000000000000000000000000000000000000000000000000000000000000000000000000000000000000000000000000000000000000000000000000000000000000000000000000000000000000000000000000000000000000000000000000000000000000000000000000000000000000000000000000000000000000000000000000000000000000000000000000000000000000000000000000000000000000000000000000000000000000000000000000000000000000000000000000000000000000000000000000000000000000000000000000000000000000000000000000000000000000000000000000000000000000000000000000000000000000000000000000000000000000000000000000000000000000000000000000000000000000000000000000000000000000000000000000000000000000000000000000000000000000000000000000000000000000000000000000000000000000000000000000000000000000000000000000000000000000000000000000000000000000000000000000000000000000000000000000000000000000000000000054000000000000000000000000000000000000000000000000000000000000000000000000000000000000000000000000000000000000000000000000000000000000000000000000000000000000000000000000000000000000000000000000000000000000000000000000000000000000000000000000000000000000000000000000000000000000000000000000000000000000000000000000000000000000000000000000000000000000000000000000000000000000000000000000000000000000000000000000000000000000000000000000000000000000000000000000000000000000000000000000000000000000000000000000000000000000000000000000000000000000000000000000000000000000000000000000000000000000000000000000000000000000000000000000000000000000000000000000000000000000000000000000000000000000000000000000000000000000000000000000000000000000000000000000000000000000000000000000000000000000000000000000000000000000000000000000000000000000000000000000000000000000000000000000000000000000000000000000000000000000000000000000000000000000000000000000000000000000000000000000000000000000000000000000000000000000000000000000000000000000000000000000000000000000000000000000000000000000000000000000000000000000000000000000000000000000000000000000000000000000000000000000000000000000000000000000000000000000000000000000000000000000000000000000000000000000000000000000000000000000000000000000000000000000000000000000000000000000000000000000000000000000000000000000000000000000000000000000000000000000000000000000000000000000000000000000000000000000000000000000000000000000000000000000000000000000000000000000000000000000000000000000000000000000000000000000000000000000000000000000000000000000000000000000000000000000000000000000000000000000000000000000000000000000000000000000000000000000000000000000000000000000000000000000000000000000000000000000000000000000000000000000000000000000000000000000000000000000000000000000000000000000000000000000000000000000000000000000000000000000000000000000000000000000000000000000000000000000000000000000
#033382:0026
#033350:00130000
#033380:000000000000000000000000000000000000000000000000000000000000000000000000000000000000000000000000000000000000000000000000000000000000000000000000000000000000000000000000000000000000000000000000000000000000000000000000000000000000000000000000000000000000000000000000000000000000000000000000000000000000000000000000000000000000000000000000000000000000000000000000000000000000000000000000000000000000000000000000000000000000000000000000000000000000000000000000000000000000000000000000000000000000000000000000000000000000000000000000000000000000000000000000000000000000000000000000000000000000000000000000000000000000000000000000000000000000000053000000000000000000000000000000000000000000000000000000000000000000000000000000000000000000000000000000000000000000000000000000000000000000000000000000000000000000000000000000000000000000000000000000000000000000000000000000000000000000000000000000000000000000000000000000000000000000000000000000000000000000000000000023000000000000000000000000000000000000000000000000000000000000000000000000000000000000000000000000000000000000000000000000000000000000000000000000000000000000000000000000000000000000000000000000000000000000000000000000000000000000000000000000000000000000000000000000000000000000000000000000000000000000000000000000000000000000000000000000000000000000000000000000000000000000000000000000000000000000000000000000000000000000000000000000000000000000000000000000000000000000000000000000000000000000000000000000000000000000000000000000000000000000000000000000000000000000000000000000000000000000000000000000000000000000000000000000000000000000000000000000000000000000000000000000000000000000000000000000000000000000000000000000000000000000000000000000000000000000000000000000000000000000000000000000000000000000000000000000000000000000000000000000000000000000000000000000000000000000000000000000000000000000000000000000000000000000000000000000000000000000000000000000
#043322:13230000000000000000000000000000
#0433b0:13230000000000000000000000000000
#0433b0:00001323000000000000000000000000
#043322:00001323000000000000000000000000
#0433b2:00000000132300000000000000000000
#043320:00000000132300000000000000000000
#0433b0:00000000000013230000000000000000
#043322:00000000000013230000000000000000
#0433b2:00000000000000001323000000000000
#043320:00000000000000001323000000000000
#0433b0:00000000000000000000132300000000
#043322:00000000000000000000132300000000
#0433b2:00000000000000000000000013230000
#043320:00000000000000000000000013230000
#0433b0:00000000000000000000000000001323
#043322:00000000000000000000000000001323
#044322:1c
#046372:0052
#047372:00000022
#0483b2:0012000000002200
#049332:0012000000002200
#0513c2:000000000000000000000000000000000000120000000022
#0523a2:120000000022000000000000000000000000000000000000
#052382:000000000000120000000022000000000000000000000000
#052362:000000000000000000000000120000000022000000000000
#052322:000000000000000000000000000000000000120000000022
#053342:120000000022000000000000000000000000000000000000
#053362:000000000000120000000022000000000000000000000000
#053382:000000000000000000000000120000000022000000000000
#053382:000000000000000000000000000000000000160000000026
#054362:160000000026000000000000000000000000000000000000
#054382:000000000000160000000026000000000000000000000000
#054362:000000000000000000000000160000000026000000000000
#054322:000000000000000000000000000000000000160000000026
#055342:160000000026000000000000000000000000000000000000
#055322:000000000000160000000026000000000000000000000000
#055342:000000000000000000000000160000000026000000000000
#055362:000000000000000000000000000000000000180000000028
#056322:180000000028000000000000000000000000000000000000
#056362:000000000000180000000028000000000000000000000000
#056322:000000000000000000000000180000000028000000000000
#056322:0000001c
#059322:00000000000000000000000000000000002c000000000000
#057320:00160026
#0573c1:00000012
#0583c1:00220000
#058320:00140024
#058381:00000016
#059381:00260000
#066392:000000000000000000000000000000000000122200000000
#0663c1:000000000000000000122200
#066382:000000000000000000000000000000000000000012220000
#0663b1:000000000000000000000000000000000000000000122200
#066372:000000000000000000000000000000000000000000001222
#0663a1:000000000000000000000000000000000000000000000012
#0673a1:22
#067362:122200000000000000000000000000000000000000000000
#067391:001222000000000000000000000000000000000000000000
#067352:000012220000000000000000000000000000000000000000
#067381:000000122200000000000000000000000000000000000000
#067342:000000001222000000000000000000000000000000000000
#067371:000000000012220000000000000000000000000000000000
#067332:000000000000122200000000000000000000000000000000
#067361:000000000000001222000000000000000000000000000000
#067322:000000000000000012220000000000000000000000000000
#067351:000000000000000000122200000000000000000000000000
#067332:000000000000000000001222000000000000000000000000
#067361:000000000000000000000012220000000000000000000000
#067342:000000000000000000000000122200000000000000000000
#067371:000000000000000000000000001222000000000000000000
#067352:000000000000000000000000000012220000000000000000
#067381:000000000000000000000000000000122200000000000000
#067362:000000000000000000000000000000001222000000000000
#067391:000000000000000000000000000000000000000000000000000000000000000000000000000000000000000000000000000000000000000000000000000000000000000000000000000000000000000000000000000000000000000000000000000000000000000000000000000000000000000000000000000000000000000000000000000000000000000000000000000000000000000000000000000000000000000000000000000000000000000000000000000000000000000000000000000000000000000000000000000000000000000000000000000000000000000000000000000000000000000000000000000000000000000000000000000000000000000000000000000000000000000012000000000000000000000000000022000000000000000000000000000000000000000000000000000000000000000000000000000000000000000000000000000000000000000000000000000000000000000000000000000000000000000000000000000000000000000000000000
#069321:0000001c
#070321:2c
#070361:0000122200000000
#0703c2:0000122200000000
#070320:0000001424000000
#070362:00001222
#070390:00000012
#071390:22
#071320:00000000000000120000000022000000
#071352:00000000000000120000000022000000
#073322:00000016
#074322:26
#073380:00000016
#074380:26
#074380:0000122200000000
#074322:0000122200000000
#0743a1:0000001424000000
#074382:00001222
#074351:00000012
#075351:22
#0753c1:00000000000000120000000022000000
#075392:00000000000000120000000022000000
#076352:0000000000001323
#076321:0000000000001222
#085321:0000001c
#086321:2c
#088321:00130000230000000000000000000000
#0883b1:00000000001300002300000000000000
#088321:00000000000000000013000023000000
#0883b1:00000000000000000000000000130000
#0893b1:23
#099391:00000012
#100391:22
#100362:12220000
#1003c1:00120022
#100330:00122200
#100362:00001222
#100390:00000012
#101390:22
#101321:1222
#101380:00122200
#101352:00001222
#1033c2:00000012
#1053c2:00220000
#103380:00000012
#105380:22
#103341:00000012
#104341:00000022
#001920:0000000000000012
#002920:22
#001991:0000000000000012
#002991:22
#077921:12
#077961:00220000
#077950:12
#077990:00220000
#077982:12
#0779c2:00220000
#095930:00000000000000000000000012000052
#096930:0022000000000000
#0959c2:00000000000000000000000012000052
#0969c2:0022000000000000
#095991:00000000000000000000000012000052
#096991:0022000000000000
#096992:00000000120000520000220000000000
#096921:00000000120000520000220000000000
#096960:00000000120000520000220000000000
#096941:00000000000000000000000012000052
#097941:0022000000000000
#0969c0:00000000000000000000000012000052
#0979c0:0022000000000000
#096972:00000000000000000000000012000052
#097972:0022000000000000
#097960:0000122200000000
#0979c2:0000122200000000
#097991:0000122200000000
#097992:0000000012220000
#097931:0000000012220000
#097960:0000000012220000
#097951:00000000000000000000000012000052
#098951:0022000000000000
#0979b0:00000000000000000000000012000052
#0989b0:0022000000000000
#097982:00000000000000000000000012000052
#098982:0022000000000000
#0989a0:00000000120000520000220000000000
#098922:00000000120000520000220000000000
#098971:00000000120000520000220000000000
#098962:00000000000000000000000012000052
#099962:0022000000000000
#0989c1:00000000000000000000000012000052
#0999c1:0022000000000000
#098990:00000000000000000000000012000052
#099990:0022000000000000
#0999b1:00000000120000520000220000000000
#099920:00000000120000520000220000000000
#099952:00000000120000520000220000000000
#104940:000000000000000000000000000000000000000000000000000000000000000000000000000000000000000000000000000000000000000000000000000000000000000000000000000000000000000000000000000000000000000000000000000000000000000000000000000000000000000000000000000000000000000000000000000000000000000000000000000000000000000000000000000000000000000000000000000000000000000000000000000000000000000000000000000000000000000000000000000000000000000000000000000000000000000000000000000000000000000000000000000000000000000000000000000000000000000000000000000000000000000000000000000000000000000000000012000000000000000000000000000000000000000000000000000000000000000000000000000000000000000000000000000000000000000000000000000000000000000000000000000000000000000000000000520000000000520000000000
#105940:22
#104982:000000000000000000000000000000000000000000000000000000000000000000000000000000000000000000000000000000000000000000000000000000000000000000000000000000000000000000000000000000000000000000000000000000000000000000000000000000000000000000000000000000000000000000000000000000000000000000000000000000000000000000000000000000000000000000000000000000000000000000000000000000000000000000000000000000000000000000000000000000000000000000000000000000000000000000000000000000000000000000000000000000000000000000000000000000000000000000000000000000000000000000000000000000000000000000000000000000000000000000000000000000000000000000000000000000000000000000000000000000000000000000000000000000000000000000000000000000000000000000000000000000000000000000000000000000000000000000000012
#105982:00000000000000000000000000005252220000000000000000000000000000000000000000000000000000000000000000000000000000000000000000000000
#1059c0:000000000000000000000000000000000000000000000000000000000000000000000000000000000000000000000000000000000000000000000000000000000000000000000000000000000000000000000000000000000000000000000012000000000000000000000000000000000000000000000000000000000000000000000000000000000000000000000000000000000000000000000000000000000000000000000000000000000000000000000000520000000000520000000000220000000000000000000000000000000000000000000000000000000000000000000000000000000000000000000000000000000000000000000000000000000000000000000000000000000000000000000000000000000000000000000000000000000000000000000000000000000000000000000000000000000000000000000000000000000000000000000000000000000000000000000000000000000000000000000000000000000000000000000000000000000000000000000000
