This file was generated by Ched 2.7.0.0.
#TITLE ""
#ARTIST ""
#DESIGNER ""
#DIFFICULTY 0
#PLAYLEVEL
#SONGID ""
#WAVE ""
#WAVEOFFSET 0
#JACKET ""
#REQUEST "ticks_per_beat 480"
#00002: 4
#BPM01: 200
#BPM02: 150
#BPM03: 160
#BPM04: 170
#BPM05: 180
#BPM06: 185
#BPM07: 190
#BPM08: 195
#00008: 01
#10508: 00000001
#06608: 00000001
#09508: 00000002
#04708: 02
#06008: 00000003
#06108: 00000004
#06208: 00000005
#06308: 00000006
#06408: 00000007
#06508: 00000008
#TIL00: ""
#VOLUME: ""
#HISPEED 00
#MEASUREHS 00
#0001b:13
#00018:0013000000000000
#00015:0000130013001313
#00012:13
#0011b:1313
#00118:0013000000000000
#00115:00130000
#00112:1300000000000000000000001300000000000000000000000000000013535353
#0021b:13001313
#00218:0013001300000013
#00215:00130000
#00212:53001313
#00315:1313000000001300
#00312:0000130000130000
#0031b:0000001300000000
#00318:00130000000000001300000000001300
#0041b:13131313
#00412:1300000013001313
#00414:0053000000000000
#00416:00530000
#00516:1353
#0051b:13131313
#00514:0053005300000000
#00512:00530000
#00612:1300000053001313
#0061b:13131313
#00614:0053005300000000
#00616:00530000
#00716:1300130000130000
#00714:00530000000013000000000013000000
#00712:0053000013000013
#0071b:13131313
#00817:0000131313000000
#00812:0013
#00816:2300000000001313
#0081b:23
#00916:1300000000001313
#0091b:13
#00917:0000131313000000
#00912:0013
#01016:1313
#0101b:1313
#01017:00130013
#01012:00130013
#01015:0000000000000013
#01118:1300130000130013
#0111b:0013000013000000
#01115:0000001300001300
#01112:0013
#01415:0013001300000000
#01418:13130000
#01417:0013
#01414:0000000000130000
#01416:00000013
#01412:0013
#01419:0000000000130000
#0141b:00000013
#01512:00120000
#01516:0000000012121212
#01518:00000000120000000000001200000000
#0151c:0012
#0161b:1313
#01619:0013001300000000
#01617:0000130000000013
#01610:41
#01717:00130013
#01719:0000001300000013
#0171b:0013
#01817:1313
#0181b:0013001300000013
#01819:00130000
#0191b:00130000
#01919:0000001300000000
#01918:0000000000000013
#01917:0013
#02015:13
#02012:00130000
#02014:0000001300000000
#02016:0000000013001313
#02116:00130013
#02114:0000001300000000
#02112:0013
#02212:13001313
#02214:0013001300000000
#02216:00130000
#02217:00000013
#02219:0000000000130013
#02312:13130000
#02315:0013001313131313
#02318:00000000000000130013000000130013
#0231b:13130000
#02613:00130000
#02614:0013
#02615:00000013
#02618:0013000000000000
#02619:0000001300000000
#0261a:0000000000130000
#0261b:0000000000000013
#02612:23
#02712:13
#02718:00130000000000000000000000000000
#02713:0013000000000000
#02719:00000013000000000000000000000000
#02714:00130000
#0271a:00000000001300000000000000000000
#02715:0000001300000000
#0271b:00000000000000130000000013000000
#02818:001300001300
#02812:2313
#02815:000000000000001300000000
#0281b:23000013
#02810:41
#0301b:230013130000000033000000
#03016:000000130000000013130000
#03017:000000000013130000000000
#03012:230000000033000000000000
#03212:131300000000000000000013
#03216:000014000000001414000000
#0321b:000000000013130000000000
#03318:00000013
#03315:0000000000000013
#03317:130000000013130000000000
#03316:000013130000000000000000
#03312:130000000033000000000000
#0331b:003300000000
#0341b:13131313
#03412:13131313
#03415:0013000000000000
#03418:0000001300000000
#03416:0000000000140014
#03518:0000000000000013
#0351b:13
#03512:13131300
#03519:00130000
#03517:0013
#03612:13131313
#03619:0000001300000000
#0361b:1300000013000013
#03617:0000130000330000
#03616:0000000000000013
#03718:0000130000000013
#03715:0000001300001300
#03712:3313
#0371b:0013000013000000
#03812:13131300
#03815:0013000000000000
#03818:0000001300000000
#0381b:1300130013001313
#03816:0000000000330013
#0391b:0013000013000000
#03918:00130013
#03915:0000001300000013
#03912:3313
#04012:1300000013000013
#0401b:13131313
#04014:0000001300000000
#04016:0000130000330000
#04017:0000000000000013
#04010:41
#04214:0000000000000013
#0421b:13131300
#04218:0013000000000000
#04215:0000001300000000
#04212:13131313
#04219:0000000000000013
#04217:0000000000330000
#04312:0013000013000000
#04314:00130000
#04316:1300001300000000
#0431b:1300001300000000
#04317:0013000013000000
#04319:00130000
#04814:0012000000121200
#04816:00120000
#04818:00000000000012000000001200000000
#0481a:0012
#0491a:0012120022002200
#04916:00000012000000001200000000000000
#04914:0000001200001200
#04918:0000000000120000
#0511b:000000000000000000230013
#0511c:0012120000000000
#05118:00000012000000000000000000000000
#05119:00000000000012000012001200000000
#05117:00000000000000120000000000000000
#05115:0000000022120000
#05112:00000023
#05110:00000041
#0521b:130013
#05212:000013130000130000001300
#05218:00000013
#05215:000000000000000000000013
#05216:13
#05318:130000000000000000130013
#0531b:000013130000000000001300
#05312:000000000000001300000000
#05315:000013
#05316:00130000
#05415:130000001313
#0541b:000013130000130000000000
#05418:000000000000001300000013
#05412:00000013
#0551b:13000013
#05512:000013130000000000130013
#05812:000013130000130000000000
#05815:000000000000001300000013
#05818:130013
#05918:000013130000000000001300
#05919:000000000013000000000000
#0591a:000000000000001300000000
#0591b:00000013
#05915:000000000000000000230013
#05912:00130000
#05913:000000000013000000000000
#05914:000000000000001300000000
#0591f:00000011
#06012:13231323
#06015:001300001300001300000013
#06018:000013000013000013001300
#0601b:00230023
#06112:13230023
#06115:001300000013000013001300
#06118:000013001300001300000013
#0611b:00231323
#06218:001300000013000013001300
#06215:000013001300001300000013
#0621b:13230023
#06212:00231323
#06312:13230023
#06315:001300001300230000000000
#06318:000023000013001300000013
#0631b:000000230000000013001300
#06418:001300000013001300000013
#06415:231300231313
#0641b:001300
#06412:00230023
#06518:001300001300000013001300
#06515:000013000013001300000013
#06512:00232300
#0651b:23230023
#06818:00001300130000000000131300000000
#06815:00000013000013000000000000001300
#0681b:00000000000000131300000000000000
#06812:00000013
#06918:1300000000530000000000000000130000000000130000000000000000000000
#06917:0013000000000000
#06915:0000000000000053000000001300000013000000000000000000000000000000
#06912:0013000000000000
#06919:00000053000000000000000000000000
#0691a:0000000000000053000000000000000000000000000000000000000000000000
#0691b:00530000
#06913:0000000000530000000000000000000000000000000000000000000000000000
#06914:00000053000000000000000000000000
#06916:00530000
#07015:00000013000000001300001300000000
#07018:0023000000130000
#07012:0000001300000000
#0701b:00000023
#0701f:21
#07115:00000013000000000000130000000000
#07118:00002300131300000000001300000000
#07112:0000001300001300
#0711b:00000000000000130000000000000000
#07110:41
#07217:0013230000000000
#07212:00000013000000000000000000001313
#07219:0000001323000000
#07214:00000000000000130000000000000000
#0721b:0000000000132300
#07216:00000000000000000000001300000000
#0731b:00001313000000000000001300000000
#07312:0000001300001300
#07317:23000000000000130000000000000000
#07314:0013
#07319:00000000000000000013000000000000
#07316:0000230000130000
#07618:0013000000000000
#07615:00000013000000000000000000000000
#0761b:00000000000013130000000000000000
#07612:00000000230000000000131300002300
#07616:0023
#07617:00000023
#07712:1300000000131300
#07715:00130000130000130000000000000000
#07718:0013000000000000
#0771b:00000013000013001300000000000000
#07717:0000000000131300
#07812:13131313
#07817:1300131313001300
#0781b:0000000000000013
#08212:1313130000000000
#08218:1300131300000000
#0821b:0000000013131300
#08215:0000000013001313
#08116:1300130013001313
#0811b:13131313
#08112:0013000000000000
#08318:1300131300002313
#08312:13001300130000000000000000130013
#0831b:0000000013130000
#08315:0013
#0841b:2300000013000000000000000000000013535353535353535300000000000000
#08418:00000000230013000000000000001313
#08415:00130013000000000000000000000000
#08412:00000000001300130000000013000000
#08512:1300001300000000
#08518:00130000000000130000000000000000
#08515:00001313000000000000130000000000
#0851b:00000000130000000013000000000000
#08510:00000041
#08618:0013000000000000
#08615:00130000
#08617:00000000000000130000000000000000
#08616:00000000000000000000001300000000
#08612:0000002323000000
#0861b:0000000000232300
#08717:0013000000231300
#08716:00130000
#08712:1323000000132300
#0871b:13230000
#08714:00000000000000130000000000000000
#08719:00000000000000230000000000000000
#08815:0013230000130000
#0881b:13000013000000000000001323000000
#08818:00000000000013002300000000001313
#08812:13000000000000130000000000000000
#08912:2300001300000000
#08918:00000000000000130000000000000000
#08913:0013
#08919:00000000000000000013000000000000
#08914:0000000000130000
#0891a:00000000000000000000001300000000
#08915:00001313000000000000000023000000
#0891b:00230000
#0901b:0013000013000000
#09018:00000013000013000000001300000000
#09015:0000000000131300
#09012:0013
#09117:0013130000131300
#0911b:13000000000000130000000000000000
#09112:13
#09215:00001300000000130000130000000013
#09218:00000013000013000000001300001300
#09212:13130013
#0921b:1313
#0931b:13130000
#09318:00130000000000130000000000000000
#09315:0013001300000000
#09312:00000013000000000000130013000000
#09518:000000000013
#09515:000000000000000000000013
#0951b:00000023
#09618:130000001300130000000013
#09615:001300000013001300001300
#09612:000013000000000013230000
#0961b:00230000
#09715:130013001313
#09718:001300000013001300000013
#0971b:001300130000
#09712:00230023
#09918:130000001300000013000013
#09915:001300000013001300000000
#09912:000013000000130000000013
#0991b:00230023
#10018:130000001300000000000013
#1001b:00131300
#10015:000000000013000000001300
#10012:13000013
#1011b:13
#10118:000013130000000000000000
#1011a:00000014
#10112:000013130000000000000000
#10215:14
#10212:00140000
#10217:0014
#1021a:00000014
#0121b:23130000
#01219:0000001300000000
#01217:0013
#01212:23001313
#01214:0000000000000013
#01316:13
#0131b:13130000
#01319:0000001300000000
#01317:0013
#01312:00001313
#01315:0000000000000013
#02417:0013
#02419:0000000000130013
#0241b:23130013
#02412:23232323
#02517:1313
#0251b:00130013
#02512:23232323
#02915:001300001300
#0291b:2313
#02918:000000000000001300000000
#02912:23000013
#03116:14141414
#0311a:0014001400140014
#03112:00131313
#04115:0000130000000013
#04118:0000001300001300
#0411b:3313
#04112:0013000013000000
#04412:14
#05012:0012120000000000
#05016:00000012000000000000120022000000
#05014:0000001212000000
#05018:00000000000000120000000000000000
#0501a:00000000000000000000001200000000
#05612:130013
#0561b:000013130000130000001300
#05615:00000013
#05618:000000000000000000000013
#05617:13
#05715:130000000000000000130013
#05712:000013130000000000001300
#0571b:000000000000001300000000
#05718:000013
#05717:00130000
#06615:001300000013001300000000
#06618:000000001300000013000000000000001300000000530000
#06612:2323
#0661b:00230023
#0661a:000000000000000000000000000000000000005300000053
#06619:000000000000000000005353
#0741b:1300001300000000
#07412:13000023
#07418:00000013000000001300001300000000
#07415:0023000000130000
#07518:00000013000000000000130000000000
#07515:00002300131300000000001300000000
#0751b:0000001300002300
#07512:00000000000000130000000000000000
#07912:13131313
#07917:13131313
#0791b:0013000000000000
#0801b:13131313
#08016:1300131313001300
#08012:0000000000000013
#09815:130000001300130000000013
#09818:001300000013001300001300
#0981b:000013000000000013230000
#09812:00230000
#10315:14
#10312:00140000
#10317:0014
#1031a:00000014
#06715:2300530000530000
#06718:00235300
#06712:0053000023005c00
#0671b:5300005300000000
#06714:005300000053000000000000000053005300000000000000
#06713:000053005300000000000000005300000053000000000000
#06719:000000000000005300000053000000000000000000000000
#0671a:000000005353000000000000
#10512:00000023
#10518:00000000000000000000000000230000
#10515:0000000000000023
#1051b:00000000000000000000000000000023
#10612:2300000000000000230000000000000023000000000000002353535353002300
#10618:00230000002300000023000000000000
#10615:0023002300230000
#1061b:00000023000000230000002300002300
#1071a:23
#10713:00230000000000000000000000000000
#10719:0023000000000000
#10714:00000023000000000000000000000000
#10718:0000232300000000
#10715:00000000002300230000000000000000
#10712:000000000000000000000000000000002c6c6c6c6c6c6c6c6c00000000000000
#0045b:13131313
#0015b:0013
#0055b:13131313
#00556:0013
#0065b:13131313
#00652:0013
#0075b:13131313
#00852:0013
#0095b:13
#00952:0013
#0105b:13
#01252:0013
#0135b:13
#01352:0013
#0145b:00000013
#01456:00000013
#02557:5353
#0255b:00530053
#0175b:0013
#0165b:0053
#01657:0000000000000053
#01857:0053
#0185b:0000000000000053
#01957:0023
#02056:0000000000000053
#02152:0013
#02156:00000013
#0275b:00000013
#02756:00000013
#03056:00530053
#03057:0053
#03156:54545454
#0315a:0024002400240024
#03357:63
#03356:00630000
#0355b:13
#03552:13131300
#03559:00130000
#03557:0013
#0365b:0053
#03656:0000000000000053
#03752:0013
#0375b:0013
#03852:0053
#03856:0000000000000023
#0395b:0013
#03952:0013
#0415b:0013
#04152:0013
#0425b:0063
#04052:0063
#04057:0000000000000063
#04357:0063
#04854:00000012
#04954:00000012
#05056:00000012
#05252:0053
#0535b:00530000
#04452:54
#05455:53
#0555b:53
#05752:00630000
#05858:63
#0565b:0063
#06752:0000001c
#07058:0000001300000000
#0705b:00000013
#07152:00000013
#0715b:00000000000000530000000000000000
#07352:00000013
#07257:00130000
#07259:0013
#0725b:00000013
#07552:00000000000000630000000000000000
#0755b:00000013
#07452:00000013
#07455:0000001300000000
#07755:00130000
#07752:00000013
#07852:13131313
#07952:13131313
#0805b:13131313
#0815b:13131313
#08258:13
#08252:00130000
#08255:0013
#0825b:00000013
#08358:13
#08352:00130000
#08355:0013
#0865b:13000013
#08652:1313
#0875b:00130000
#08759:00000000000000130000000000000000
#08757:0000000000130000
#08752:00000013
#08955:00000013
#08855:00130000
#08858:0013
#09055:00000013
#09152:00000013
#09157:00000013
#09252:00130013
#0925b:0013
#0935b:00130013
#09352:00000013
#09358:00000000000000530000000000000000
#10052:53
#10152:00530000
#1015a:00000054
#10255:24
#10252:00640000
#10257:0024
#1025a:00000054
#10355:24
#10352:00640000
#10357:0024
#1035a:00000054
#0475a:00000014
#10752:0000001c
#016320:13333333
#017320:33333333
#018320:33333333
#019320:33333323
#0163b1:0013
#016371:00000023
#016371:0000000000000013
#0173b1:0023000000000000
#018371:0013
#0183b1:00000023
#0183b1:0000000000000013
#019371:0023000000000000
#019371:0013
#0193b1:00000023
#0203b1:13333333
#0213b1:33333333
#0223b1:33332300
#020360:0000000000000013
#021320:0023000000000000
#025371:1353
#0253b1:00530053
#026371:23
#027361:00001323
#027321:0000000000330000
#028381:00132300
#029351:00132300
#030361:00130000
#030321:000000000033230000000000
#030370:0013
#0303b0:000000000000000033230000
#030361:00000013
#031321:23
#031360:14343434
#0313a0:0054005400540054
#032360:24
#033370:13
#0333b0:000033230000000000000000
#033361:00130000
#033321:000000000033230000000000
#0363b1:0013
#036371:0000000000332300
#036361:0000000000000013
#037321:3323000000000000
#038321:0013
#038361:0000000000332300
#038361:0000000000000013
#039321:3323000000000000
#040321:0013
#040361:0000000000332300
#040371:0000000000000013
#0413b1:3323000000000000
#0423b1:0013
#042371:0000000000332300
#043371:0013
#0443b1:23
#044320:14
#0463a0:0054
#0473a0:00000024
#052370:00132300
#052321:0013
#052361:000023
#0533b1:00130000
#053371:000000000000002300000000
#054351:13
#054321:00230000
#0553b1:13
#055371:00230000
#056361:00132300
#0563b0:0013
#056370:000023
#057320:00130000
#057360:000000000000002300000000
#058380:13
#0583b0:00230000
#0583b0:000000000000000000130023
#059350:132300000000
#069320:00000013
#070320:23
#0693b1:00000013
#0703b1:23
#070381:0000132300000000
#0713b1:00000000000000130000000000000000
#071381:0000000000230000
#074351:0000132300000000
#075321:00000000000000130000000000000000
#075351:0000000000230000
#076371:0000000000001323
#085321:00000013
#086321:23
#0853b0:00000013
#0863b0:23
#090350:0000132300000000
#091320:0013330000332300
#091360:00000000000000330000000000000000
#093380:00000000000000130000000000000000
#0933b0:0000000000332300
#100320:13
#100350:00230000
#101320:00130000
#101350:00000023
#1013a1:00000014
#102351:54
#1023a1:00240000
#102320:00140024
#102370:0054
#1023a1:00000014
#103351:54
#1033a1:00240000
#103320:00140024
#103370:0054
#1033a1:00000014
#105361:00000024
#001920:0000000000000013
#002920:23
#004920:13
#004960:00230000
#005960:1323
#005920:00530000
#006920:1323
#006960:00530000
#007960:13
#007920:0023000000000000
#0669b0:00000013
#066980:0000000000000053
#0679b0:23
#067951:13230000
#067921:0053000000000000
#067980:00132300
#0679b0:0000005300000000
#067921:00001323
#067951:0000000000530000
#069921:0013000000000000
#069961:00230000
#069970:0013000000000000
#0699b0:00230000
#0849b0:00001323
#106920:0000000000001323
#107920:00001c2c
