This file was generated by Ched 2.7.0.0.
#TITLE ""
#ARTIST ""
#DESIGNER ""
#DIFFICULTY 0
#PLAYLEVEL
#SONGID ""
#WAVE ""
#WAVEOFFSET 0
#JACKET ""
#REQUEST "ticks_per_beat 480"
#00002: 4
#BPM01: 200
#BPM02: 150
#BPM03: 160
#BPM04: 170
#BPM05: 180
#BPM06: 185
#BPM07: 190
#BPM08: 195
#00008: 01
#10508: 00000001
#06608: 00000001
#09508: 00000002
#04708: 02
#06008: 00000003
#06108: 00000004
#06208: 00000005
#06308: 00000006
#06408: 00000007
#06508: 00000008
#TIL00: ""
#VOLUME: ""
#HISPEED 00
#MEASUREHS 00
#0001b:13
#00015:0013000013000013
#00018:00130013
#0011b:1313
#00115:0000000013000000000000000000000000000000000000000000000013535353
#00118:00130000
#00112:0000001300000000
#00218:0013000000000000
#00212:0000130000000013
#0021b:0000001300001300
#00215:5313
#00318:1313000000130013
#00312:00130000
#0031b:0000001300000000
#00315:00130000000000001300000013000000
#00412:13
#0041b:0013
#00415:00000013
#00418:0000000000000013
#00414:0053000000000000
#00416:00530000
#00512:1353
#00514:0053005300000000
#00516:00530000
#00615:00000013
#00618:0000000000000013
#0061b:1353
#00619:0053005300000000
#00617:00530000
#0071b:00130000
#00715:0000001300000013
#00718:00001313
#00712:1300000000130000
#00714:00530000000000000000000000000000
#00716:0053000000000000
#00815:0000130000000013
#00818:0000001300001300
#00812:2313
#0081b:23
#0091b:13
#00915:0000130000000013
#00918:0000001300001300
#00912:0013
#0101b:13
#01015:00130000
#01018:0000000013000013
#01012:00000013
#01115:13130013
#0111b:0013000000000000
#01118:0000001300130013
#01112:0013
#01415:0013001300130000
#01418:13131300
#0141b:00000013
#0161b:1313
#01618:0013001300000000
#01615:00130000
#01612:0000000000000013
#01610:41
#01718:0000130000000013
#01715:0000001300000000
#0171b:0013
#01712:00000013
#01812:13
#0181b:0013001300000000
#01815:00131300
#01818:0000000000000013
#01915:00130000
#01918:0000001300000013
#01912:0013
#02015:13001313
#0201b:00130000
#02018:0000001300000013
#02115:00130000
#02118:0000001300001300
#02112:0013
#02212:1313
#02215:0013000000000000
#02218:0000130000000013
#0221b:0000001300001300
#02315:1300001300000000
#02312:00130000
#0231b:00130000
#02318:0013000013000000
#02815:001300000000
#0281b:23
#02810:41
#03015:001300001300
#0301b:00130013
#03012:000000000013000000000000
#03018:2313
#03215:001300000000000000000013
#0321b:131300000000
#03212:000000000013001300000000
#03218:000000131300
#03315:000000000013000000130000
#03318:0000130000000013
#0331b:1313
#03312:001300000000
#03515:0000000000000013
#0351a:14
#03516:00140000
#03512:0014
#03618:1300001300000013
#03615:00131300
#03715:0000130000000013
#03718:0000001300001300
#03712:0013
#03815:0013000000000013
#03812:0000001300000000
#03818:00131300
#0381b:13
#03918:00130000
#03915:0000001300000013
#0391b:0013
#04918:00000013000000000000130000000000
#04915:0013130023000000
#04912:0000001300000000
#0491b:00000023
#06818:0000000000000013
#06812:0013000000130000
#0681b:0000001300000000
#06814:00000053000000000000005300000000
#06816:00530053
#06819:00000000000000530000000000000000
#06817:0053
#06915:1300000000130000
#06912:0000001300000000
#06918:0000000000000053000000000000000013000000000000000000000000000000
#0691b:0013000000000000
#0691a:0000000000530000000000000000000000000000000000000000000000000000
#06919:00000053000000000000000000000000
#06917:00530000
#07018:00000000000000001300001300000000
#07015:0000000000132300
#0701f:21
#07012:00000033000000000000000000000000
#07115:00000013000000000000000000000000
#07118:00002300003333000000000000000000
#0711b:00000000000000000000003300000000
#07110:41
#0721b:0013230000132300
#07215:00000013000000000000001300000000
#07212:0000001323000013
#07218:00000000000000130000000000000000
#07214:00000000000000000000000000000053
#07718:13131300
#07712:00130000000013000000000000000000
#0771b:0013000000001300
#07715:00000013000000000000130000000000
#07812:14141414
#07818:0000000000000013
#0781b:0000001300000000
#08115:0013000000000013
#0811a:14141414
#08218:0013000000130000
#08215:0000001300000013
#08212:1313
#0821b:00130013
#08418:00000000000000530000000000001300
#08412:2300000000000000000000000000000013535353535353535300000000000000
#0841b:00230000
#08417:5353
#08413:00530000000000000000000000000000
#08414:0053000000000000
#08415:00000053000000000000000000000000
#08416:00530000
#0841a:00000000005300000000000000000000
#08419:0000005300000000
#08512:13
#0851b:0013000000000000
#08510:00000041
#08618:0013000023000000
#08615:0000130000230000
#08612:0000002300000000
#0861b:00000023
#09012:0013000000000000
#09018:00000013000000000000130000000000
#0901b:0013
#09015:00000013
#0921b:0013000000000000
#09218:0000130013000013
#09215:0000001300130000
#09212:00000013
#09318:0000001300000000
#09312:00333333000000130000000000000000
#09315:13
#09918:000000530000000000000013
#0991b:53000023
#09912:00230053
#0991a:005300000000000000000000
#09919:005300000000
#09913:005353
#09914:000000000053005300000000
#09915:0053
#10018:000000000013000000001300
#10012:00001313
#10015:130000001300000000000013
#1001b:00130000
#1011b:13130000
#10112:00000014
#10115:001300000000
#01215:00131300
#0121b:2300001300000000
#01218:00000013
#01212:2300000000000013
#01318:13000013
#01315:0000130013000013
#0131b:0000001300000000
#02512:1313
#02515:00130013
#04018:0000001300000013
#04015:00130000
#04012:0013
#0401b:13
#04010:41
#04115:00130000
#04118:0000001300001300
#04112:0013
#0431b:0013
#04315:13130000
#04318:0013000000000000
#04312:0000001300000000
#04412:14
#05214:14000014
#05218:001400000014
#05212:000000140000000000000014
#0521a:000014
#07918:0013000000000000
#07912:14141414
#08015:0000000000000013
#08012:0000001300000000
#0801a:14141414
#08318:00001300000000000000130000000053
#08315:0000001300000000
#08312:1313
#0831b:00130023
#0831a:00000000000000000000000000530000
#08319:0000000000000053
#1021a:00140000
#10212:00000014
#1031a:00140000
#10312:00000014
#01512:0000130000000013
#0151b:0013
#01518:0000000000130000
#01515:00000013
#02618:0013001300000000
#02612:00130000
#02615:00001313
#0261b:0000000000130013
#02918:001300000000
#02912:23
#03112:1414
#03116:00140000
#03412:13131313
#0341b:13131313
#04215:1313
#0421b:0013000000001300
#04212:00130000
#04218:0000001300000013
#0481b:0013000000000000
#04818:0000130000131300
#04815:00000000000013000000001300000000
#04812:0013
#05012:0013000000000000
#05019:0000001300000000
#05014:0000530000130000
#05013:00000053000000000000000000000000
#05018:00000000000000530000000000000000
#05017:0053
#05015:00000000000000000000005300000000
#05016:00000053
#0511b:0013000000000000
#05115:0000001313535300
#05118:00000000000000130000000000000000
#0511a:000000000000000000530000000000000000000000000000000000000000000000000000000000000000000014000000
#05110:00000041
#05119:00530000
#05114:00000000000000000053005300000000
#0531a:14
#05314:000014000000000000000014
#05318:000000140000000014000000
#05312:000000000000001400000000
#05313:00000014
#05319:000000000014
#0541a:14
#05412:000000141414
#05418:000000000000001400140014
#05512:140000000000000000000014
#0551a:00000014
#05618:14000014
#05614:001400000014
#0561a:000000140000000000000014
#05612:000014
#05712:14
#05718:000014000000000000000014
#05714:000000140000000014000000
#0571a:000000000000001400000000
#05719:00000014
#05713:000000000014
#05812:14000014
#0581a:0014
#05814:000000000000001400000000
#05818:000000000000000014000014
#05914:140000140000005400000000
#05918:001400000000
#0591f:00000011
#0591b:00000023
#05912:000000000054000000540000
#0591a:000000000053
#05919:000000000000000000000053
#0731b:0013000000000000
#07312:0000001300005300
#07316:53
#07319:00000053000000000000000000000000
#07317:00530000
#07313:00000000000000530000005300000000
#07314:0000000053530000
#07315:00000000000000000053000000000000
#07415:00000000000000001300001300000000
#07418:0000000000132300
#0741b:00000033000000000000000000000000
#07518:00000013000000000000000000000000
#07515:00002300003333000000000000000000
#07512:00000000000000000000003300000000
#07612:0013230000132300
#07618:00000013000000000000001300000000
#0761b:0000001323000023
#07615:00000000000000130000000000000013
#08812:0013230000132300
#08818:00000013000000000000001300000000
#0881b:0000001323000013
#08815:00000000000000130000000000000000
#08819:00000000000000000000000000000053
#08912:0013000000000000
#0891b:0000001300006300
#08917:53
#08914:00000053000000000000000000000000
#08916:00530000
#0891a:00000000000000530000005300000000
#08919:0000000053530000
#08918:00000000000000000053000000000000
#02412:23
#02415:00230000
#02418:0023
#0241b:00000023
#08712:0024000000002400
#0871a:00240000
#08714:00000000000000240000000000000000
#08718:0000000000240000
#0951b:00000023
#0951a:000000000053
#09519:000000000000000000000053
#09615:00230053
#09618:53000023
#09619:005300000000000000005300
#0961a:000053000000000000000053
#0961b:00530000
#09614:005353
#09613:000000000053005300000000
#09612:0053
#06012:00230053
#06018:53000023
#06019:005300000000000000005300
#0601a:000053000000000000000053
#0601b:00530000
#06013:005353
#06014:000000000053005300000000
#06015:0053
#06115:00230053
#0611b:53000023
#0611a:005300000000000000005300
#06119:000053000000000000000053
#06118:00530000
#06114:005353
#06113:000000000053005300000000
#06112:0053
#06215:00230053
#06218:53000023
#06219:005300000000000000005300
#0621a:000053000000000000000053
#0621b:00530000
#06214:005353
#06213:000000000053005300000000
#06212:0053
#06312:00230053
#0631b:53000023
#0631a:005300000000000000005300
#06319:000053000000000000000053
#06318:00530000
#06313:005353
#06314:000000000053005300000000
#06315:0053
#06415:23000053
#06418:53230000
#06412:00532300
#0641b:00005323
#06414:005300000000000053000000
#06413:000053000000005300000000
#06419:000000005300000000000053
#0641a:000000000053000000005300
#06515:23000053
#06518:53230000
#06512:00532300
#0651b:000000000000530000235353
#06514:005300000000000053000000
#06513:000053000000005300000000
#06519:005300
#0651a:000000000053000000000000
#06615:230053005300530000000000000000000000000000000054
#06615:00530000
#06618:000000235353530000005400
#06612:000000000000235353530000
#0661a:00000024
#0661b:53
#06619:000000000000000000000000000000000000005400000000
#06617:0000000000000054
#06616:000000000000000000000054
#09712:00230053
#0971b:53000023
#0971a:005300000000000000005300
#09719:000053000000000000000053
#09718:00530000
#09713:005353
#09714:000000000053005300000000
#09715:0053
#09815:00230053
#09818:53000023
#09819:005300000000000000005300
#0981a:000053000000000000000053
#0981b:00530000
#09814:005353
#09813:000000000053005300000000
#09812:0053
#1051b:00000000000000000000000023535353
#10615:23535353530000000000000000000000
#10618:00000000235353535300000000000000
#10612:00000000000000002353535353000000
#1061b:5300000000000000000000000000000000000000000000002353535353005300
#10715:23535353530000000000000000000000
#10718:00000000235353535300000000000000
#10712:0000000000000000000000000000000026666666666666666600000000000000
#1071b:53
#02712:00333333333333330000000000000000
#06712:0000005c
#06716:540054540054540054000000
#06717:005400540000005400540000005400540000000000000000
#06718:005400005400005400000000
#06715:000000000054000000000054000000000054000000000000
#0015b:0013
#00552:0013
#0065b:0013
#00852:0013
#0095b:13
#00952:0013
#0105b:13
#01255:0013
#0145b:00000013
#02552:5353
#02555:00530053
#0175b:0013
#0165b:0053
#01652:0000000000000053
#01855:0053
#01858:0000000000000053
#01952:0023
#02058:0000000000000053
#02152:0013
#02158:00000013
#0355a:14
#03556:00140000
#03552:0014
#03655:0053
#03658:0000000000000063
#03752:0013
#03858:0053
#03855:0000000000000053
#0395b:0013
#04052:0063
#04058:0000000000000063
#04152:0013
#0435b:0063
#04452:54
#06752:0000001c
#07758:00130000
#0775b:00000013
#07852:14141414
#08252:1313
#0825b:00130013
#08658:0013
#0865b:00000013
#0875a:00140000
#08754:00000000000000140000000000000000
#08758:0000000000140000
#08752:00000014
#09152:00000013
#09355:53000013
#09352:00000000130000530000000000000000
#1015b:00630000
#10152:00000064
#1025a:00540000
#10252:00000064
#1035a:00540000
#10352:00000064
#01358:13
#01355:0013
#02358:0053
#02756:00000014
#03152:5454
#03156:00540000
#04858:00000013
#05252:00540000
#05358:00540000
#0545a:54
#05552:64
#0565a:00640000
#05754:00640000
#05852:64
#0715b:00000013
#07352:00000013
#07552:00000013
#07952:14141414
#0805a:14141414
#0815a:14141414
#08352:1313
#0835b:00130000
#0895b:00000013
#04756:00000014
#10752:00000016
#0163b0:0013
#016380:00000023
#016320:0000000000000013
#017350:0023000000000000
#018350:0013
#018320:00000023
#018380:0000000000000013
#0193b0:0023000000000000
#019320:0013
#019350:00000023
#020380:0000000000000013
#0213b0:0023000000000000
#023380:0013
#0243b0:23
#025320:1353
#025350:00530053
#026320:23
#027320:13333333333333330000000000000000
#027360:0000000034342400
#028380:00133300
#028390:000000000000003300000000
#0283a0:000033
#0283b0:00000023
#029350:00133300
#029340:000000000000003300000000
#029330:000033
#029320:00000023
#031320:1434
#031360:00340024
#036350:0013
#036320:00000023
#036380:0000000000000013
#0373b0:0023000000000000
#038380:0013
#0383b0:00000023
#038350:0000000000000013
#039320:0023000000000000
#040320:0013
#040350:00000023
#040380:0000000000000013
#0413b0:0023000000000000
#0433b0:0013
#044370:23
#044321:14
#046361:0054
#047361:00000024
#052321:00140000
#052341:0024
#053381:00140000
#0533a1:0024
#0543a1:14
#054381:000034240000000000000000
#055321:14
#055341:000034240000000000000000
#0563a1:00140000
#056381:0024
#057341:00140000
#057321:0024
#058321:14
#058341:000034240000000000000000
#0693b1:00000013
#0703b1:23
#070351:0013000000000000
#070321:00000033330023000000000000000000
#0713b1:00000000130000000000003323000000
#071381:00000000003333330000330000000000
#074381:0013000000000000
#0743b1:00000033330023000000000000000000
#075321:00000000130000000000003323000000
#075351:00000000003333330000330000000000
#085351:00000000130000000033330033000000
#085321:00000000000033330000000000000000
#086351:23
#090351:0000132300000000
#091321:0013330000332300
#091351:00000000000000330000000000000000
#093351:13
#093321:00333333230000000000000000000000
#093321:00000000000000130000000000000000
#093351:0000000000332300
#1013b1:00130000
#101381:00000023
#101320:00000014
#102350:00240000
#1023a1:00140000
#102371:00000024
#102320:00000014
#103350:00240000
#1033a1:00140000
#103371:00000024
#103320:00000014
#105360:00000024
#001950:0000000000000013
#002950:23
#004920:13
#004960:00230000
#005920:1323
#005960:00530000
#0069b0:1323
#006970:00530000
#007920:13
#007960:0023000000000000
#050920:0013000000000000
#050940:00230000
#050990:0000001300000000
#050970:0023
#050940:0000000000130000
#050960:00000023
#0519b0:0013000000000000
#051990:00230000
#051950:0000000013532300
#051940:00000000000000000053005300000000
#059940:000000140000005400000000
#059920:000000000054000000240000
#0599b0:000000000000000000000000000000000000000000000000000000000000000000000000000000000000000000000000000000000000000000000000000000000000000000000000000000000000000000000000000000000000000000000000000000000000000000000000000000000000000000000000000000000000000000000000000000000000000000000000001300000000000000000000000000000000000000000000000000000000000000000000000000000000000000000000
#060980:53
#0609b0:00230000
#060920:000000000000000000000000000000000000000000000000000000000000000000000000000000000000000000000000001300000000000000000000000000000000000000000000000000000000000000000000000000000000000000000000000000000000000000000000000000000000000000000000000000000000000000000000000000000000000000000000230000000000000000000000000000000000000000000000000000000000000000000000000000000000000000000000
#060950:0053
#060980:000000000000000000000000000000000000000000000000000000000000000000000000000000000000000000000000000000000000000000000000000000000000000000000000000000000000000000000000000000000000000000000000000000000000000000000000000000000000000000000000000000000000000000000000000000000000000000000000001300000000000000000000000000000000000000000000000000000000000000000000000000000000000000000000
#0619b0:53
#061980:00230000
#061950:000000000000000000000000000000000000000000000000000000000000000000000000000000000000000000000000001300000000000000000000000000000000000000000000000000000000000000000000000000000000000000000000000000000000000000000000000000000000000000000000000000000000000000000000000000000000000000000000230000000000000000000000000000000000000000000000000000000000000000000000000000000000000000000000
#061920:0053
#0619b0:000000000000000000000000000000000000000000000000000000000000000000000000000000000000000000000000000000000000000000000000000000000000000000000000000000000000000000000000000000000000000000000000000000000000000000000000000000000000000000000000000000000000000000000000000000000000000000000000001300000000000000000000000000000000000000000000000000000000000000000000000000000000000000000000
#062980:53
#0629b0:00230000
#062950:000000000000000000000000000000000000000000000000000000000000000000000000000000000000000000000000001300000000000000000000000000000000000000000000000000000000000000000000000000000000000000000000000000000000000000000000000000000000000000000000000000000000000000000000000000000000000000000000230000000000000000000000000000000000000000000000000000000000000000000000000000000000000000000000
#062920:0053
#062980:000000000000000000000000000000000000000000000000000000000000000000000000000000000000000000000000000000000000000000000000000000000000000000000000000000000000000000000000000000000000000000000000000000000000000000000000000000000000000000000000000000000000000000000000000000000000000000000000001300000000000000000000000000000000000000000000000000000000000000000000000000000000000000000000
#0639b0:53
#063980:00230000
#063920:000000000000000000000000000000000000000000000000000000000000000000000000000000000000000000000000001300000000000000000000000000000000000000000000000000000000000000000000000000000000000000000000000000000000000000000000000000000000000000000000000000000000000000000000000000000000000000000000230000000000000000000000000000000000000000000000000000000000000000000000000000000000000000000000
#063950:0053
#0639b0:000000000000000000000000000000000000000000000000000000000000000000000000000000000000000000000000000000000000000000000000000000000000000000000000000000000000000000000000000000000000000000000000000000000000000000000000000000000000000000000000000000000000000000000000000000000000000000000000001300000000000000000000000000000000000000000000000000000000000000000000000000000000000000000000
#064980:23
#064950:001300000000000000000000000000000000000000000000000000000000000000000000000000000000000000000000000000000000000000000000000000000000000000000000000000000000000000000000000000000000000000000000000000000000000000000000000000000000000000000000000000000000000000000000000000000000000000000000000000000000000000000000000000000000000000000000000000000000000000000000000000000000000000000000
#064920:00230000
#064980:000000000000000000000000000000000000000000000000000000000000000000000000000000000000000000000000001300000000000000000000000000000000000000000000000000000000000000000000000000000000000000000000000000000000000000000000000000000000000000000000000000000000000000000000000000000000000000000000000000000000000000000000000000000000000000000000000000000000000000000000000000000000000000000000
#0649b0:0023
#064920:000000000000000000000000000000000000000000000000000000000000000000000000000000000000000000000000000000000000000000000000000000000000000000000000000000000000000000000000000000000000000000000000001300000000000000000000000000000000000000000000000000000000000000000000000000000000000000000000000000000000000000000000000000000000000000000000000000000000000000000000000000000000000000000000
#064950:00000023
#0649b0:000000000000000000000000000000000000000000000000000000000000000000000000000000000000000000000000000000000000000000000000000000000000000000000000000000000000000000000000000000000000000000000000000000000000000000000000000000000000000000000000000000000000000000000000000000000000000000000000001300000000000000000000000000000000000000000000000000000000000000000000000000000000000000000000
#065980:23
#065950:001300000000000000000000000000000000000000000000000000000000000000000000000000000000000000000000000000000000000000000000000000000000000000000000000000000000000000000000000000000000000000000000000000000000000000000000000000000000000000000000000000000000000000000000000000000000000000000000000000000000000000000000000000000000000000000000000000000000000000000000000000000000000000000000
#065920:00230000
#065980:000000000000000000000000000000000000000000000000000000000000000000000000000000000000000000000000001300000000000000000000000000000000000000000000000000000000000000000000000000000000000000000000000000000000000000000000000000000000000000000000000000000000000000000000000000000000000000000000000000000000000000000000000000000000000000000000000000000000000000000000000000000000000000000000
#0659b0:0023
#065920:000000000000000000000000000000000000000000000000000000000000000000000000000000000000000000000000000000000000000000000000000000000000000000000000000000000000000000000000000000000000000000000000001300000000000000000000000000000000000000000000000000000000000000000000000000000000000000000000000000000000000000000000000000000000000000000000000000000000000000000000000000000000000000000000
#065950:00000023
#0659b0:000000000000000000000000000000000000000000000000000000000000000000000000000000000000000000000000000000000000000000000000000000000000000000000000000000000000000000000000000000000000000000000000000000000000000000000000000000000000000000000000000000000000000000000000000000000000000000000000001300000000000000000000000000000000000000000000000000000000000000000000000000000000000000000000
#0669b0:23
#066950:001300000000000000000000000000000000000000000000000000000000000000000000000000000000000000000000230000000000000000000000000000000000000000000000000000000000000000000000000000000000000000000000000000000000000000000000000000000000000000000000000000000000000000000000000000000000000000000000000000000000000000000000000000000000000000000000000000000000000000000000000000000000000000000000
#066980:000000000000000000000000000000000000000000000000000000000000000000000000000000000000000000000000001300000000000000000000000000000000000000000000000000000000000000000000000000000000000000000000230000000000000000000000000000000000000000000000000000000000000000000000000000000000000000000000000000000000000000000000000000000000000000000000000000000000000000000000000000000000000000000000
#066920:000000000000000000000000000000000000000000000000000000000000000000000000000000000000000000000000000000000000000000000000000000000000000000000000000000000000000000000000000000000000000000000000001300000000000000000000000000000000000000000000000000000000000000000000000000000000000000000000230000000000000000000000000000000000000000000000000000000000000000000000000000000000000000000000
#0669a1:00000014
#066951:000000000000000000000000000000000000000000000054
#067981:005400005400005400000000
#067951:000000000054000000000054000000000054000000000000
#067961:00000024
#068921:0013000000000000
#068961:00230000
#0689b1:0000001300000000
#068971:0023
#068921:0000000000130000
#068961:00000023
#0699b1:0013000000000000
#069971:00230000
#072921:0000000000000013
#073961:23
#0739b1:0013000000000000
#073971:00230000
#073921:0000001300002300
#073951:00000000000000000053000000000000
#0839b1:00000013
#084971:23
#084920:13
#084960:00230000
#0849b1:00130000
#084971:0023
#084920:00001323
#0889b0:0000000000000013
#089970:23
#089920:0013000000000000
#089960:00230000
#0899b0:0000001300002300
#089980:00000000000000000053000000000000
#0959b0:00000013
#096980:53
#0969b0:00230000
#096951:00130023
#096921:0053
#096980:00000013
#0979b0:53
#097980:00230000
#097921:00130023
#097951:0053
#0979b0:00000013
#098980:53
#0989b0:00230000
#098951:00130023
#098921:0053
#098980:00000013
#0999b0:53
#099980:00230000
#099921:00130023
#099951:0053
#1059b1:00000013
#1069b1:23
#106950:13230000
#106981:00132300
#106920:00001323
#1069b1:00000013
#1079b1:23
#107950:13230000
#107981:00132300
#107920:00001626
