This file was generated by Ched 2.7.0.0.
#TITLE ""
#ARTIST ""
#DESIGNER ""
#DIFFICULTY 0
#PLAYLEVEL
#SONGID ""
#WAVE ""
#WAVEOFFSET 0
#JACKET ""
#REQUEST "ticks_per_beat 480"
#00002: 4
#BPM01: 139
#00008: 01
#TIL00: ""
#VOLUME: ""
#HISPEED 00
#MEASUREHS 00
#0061a:14141414
#00616:0000001300001300
#00612:1413
#00614:0000000000130013
#00016:13
#00017:00000013
#0001b:13
#00412:24141414
#00417:0000001300001300
#0041b:0013
#00419:0000000000130013
#01218:00130000
#01216:00001414
#0121b:1313
#01219:0000000000130013
#01212:24130013
#01214:0000001300130013
#01210:41
#0151a:14
#0151b:00000013
#01512:0000001400001300
#01514:0000000000000013
#01519:0000000000000013
#01616:1414000000001300
#01612:0013000013000000
#01614:0000000000130013
#0161b:13000013
#01617:0013
#01619:0000000000000013
#01716:0000131300000013
#01712:130000000053000000000000
#0171b:005300000000000000130000000000000000000000000000
#01717:1300000000130000
#01719:005300000000000000000000000000000000000000000000000000000000000000000000000000000000000000000000
#01714:000000000000000000000000000000000000005300000000000000000000000000000000000000000000000000000000
#01817:0013000000000000
#01816:0000001500000015
#01815:0000000000150000
#0181b:0013
#01812:00130013
#02017:1300000000130000
#02016:0000131300000000
#02012:0000000000130000
#0201b:0000001300000013
#02010:41
#02212:5400000000130013
#02216:00540013
#02217:00000000005400000000130000001300
#0221b:00000013
#02213:00540000000000000000000000000000
#02214:0054000000000000
#02215:00000054000000000000000000000000
#02218:0000005400000000
#02219:00000000000000540000000000000000
#0221a:0054
#02312:0000130013000013
#02314:0000000000130000
#02316:0014001414001414
#0231b:13000013
#0321b:1300000013130013
#03212:1300000013130013
#03218:00000013
#03216:000000000000000000000000000000000000000000000000000000000000000000000000000000000000000000000000001300000000000000000000000000000000000000000000000000000000000000000000000000000000000000000000000000000000000000000000000000000000000000000000000000000000000000000000000000000000000000000000000000000000000000000000000000000000000000000000000000000000000000000000000000000000000000000000000000000000000000000000000000000000000000000000000000000000000000000000000000000000000000000000000000000000000000000000000000000000000000000000000000000000000000000000000000000000000000000000000000000000000000000000000000000000000000000000000000000000000000000000000000000000000000000000000000000000000000000000000000000000000000000000000000000000000000000000000000000000000000000000
#03217:0013000000000000
#03215:00000013
#03518:00000013000000000000000000000013
#03515:0000130000000013
#03514:0000000000130000
#03519:0000000000130000
#03512:2400002400002400
#0351a:2400002400002400
#03812:00131313
#03819:00000013
#03817:0000001300000013
#0381b:13
#03814:0000000000130000
#0381f:21
#03912:13131313
#0391b:0013000000130000
#03919:0013
#03914:0000001300000013
#03910:41
#0401b:13131313
#04012:13
#04019:0000000000130000
#04016:0000001300000013
#04014:00000013
#04112:1300000000130000
#04119:0000001300000013
#0411b:13131313
#04116:0000000000000013
#04114:00000013
#04212:1313130000130013
#04215:00000013
#0421b:1313130000130013
#04218:00000013
#04415:0000000000132600
#04412:2613000026000000
#0441b:0000001300000013
#04418:00000000260000000000001300000000
#04416:0000000000000023
#06412:14
#0641a:14
#00112:13
#00117:0013
#0011b:0013
#0021b:13000000000000000000000000000013
#00216:00000000000000130000000000001300
#00316:13
#00317:0000001313000000
#00312:00000000000000130000000000000000
#0051b:1313
#00519:0000000000130013
#00512:14141414
#00517:0000001300001300
#00712:13
#00716:0000001300001300
#00714:0000000000000013
#0071a:14141414
#00917:1300000000130000
#0091b:0000001300000000
#00912:14141414
#01312:1313
#0131b:13130013
#01315:00130000
#01316:00001414
#01314:0000000000130013
#01319:0000001300130013
#02812:13131313
#0281c:1200000000000012
#02818:0000001200000000
#0281a:00000012
#0281f:11
#02912:13131313
#02918:0012000000120012
#0291a:0012
#0361a:14
#03619:0015000000000000
#03618:00160000
#03617:0000001700000000
#03616:0018
#03615:0000000000190000
#03614:0000001a
#03613:000000000000001b
#03612:24
#04318:1316131300160000
#04315:0000000013130000
#04312:0000131600001300
#0431b:0000000013001313
#04517:00001400000000000000005400000000
#04518:0000140000540000
#04519:00000000000014000054000000000000
#04516:00000054
#04515:00000000000000000000000000540000
#04514:0000000000000054
#04513:00000000000000000000000000000054
#0451a:0054
#06315:0000000000000013
#06318:00000000000000000000000000000013
#06312:13
#0631b:13
#00812:14141414
#0081a:14
#00817:0013000000001300
#0081b:0000000000130013
#01012:14141414
#01017:0013000000130000
#01019:00131313
#0101b:0000001300000013
#01115:0000230000001313
#01118:00000000230000000000000000130013
#0111a:24
#01112:2400002300000000
#01116:000000000000000000000000000000000000000000000000000000000000000000000000000000000000000000000000000000000000000000000000000000000000000000000000000000000000000000000000000000000000000000000000000000000000000000000000000000000000000000000000000000000000000000000000000000000000000000000000000000000000000000000000000000000000000000000000000000000000000000000000000000000000000000000000002300000000000000000000000000000000000000000000000000000000000000000000000000000000000000000000000000000000000000000000000000000000000000000000000000000000000000000000000000000000000000000000000000000000000000000000000000000000000000000000000000000000000000000000000000000000000000000000000000000000000000000000000000000000000000000000000000000000000000000000000000000000000000000000
#0111b:0000002300000000
#01117:0023
#0141b:1313
#01412:13130013
#01418:00130000
#01416:00001414
#01419:0000000000130013
#01414:0000001300130013
#01917:0000000000001313
#01914:00530000000000000000000000000000000053000000000000530000000000000000000000000000000000000000000000000000000000000000000013000000
#01915:13000000000000000000000000000000000000530000000053000000000000000000000000000000000000000000000000000000000000000000000000000000
#01918:13000000000000000000000000000000000000530000000053000000000000000000000000000000000000000000000000000000000000000000000000000000
#0191b:00000053000000000000000000000000530000000000000000000053000000000000000000000000130000000000000000000000000000000000000000000000
#01919:00530000000000000000000000000000000053000000000000530000000000000000000000000000000000000000000000000000000000000000000000000000
#0191a:00005300000000000000000000000000005300000000000000005300000000000000000000000000000000000000000000000000000000000000000000000000
#01913:00005300000000000000000000000000005300000000000000005300000000000000000000000000000000000000000000000000000000000000000000000000
#01912:00000053000000000000000000000000530000000000000000000053000000000000000000000000000000000000000000000000000000000000000000000000
#02117:0013000000000000
#0211b:0000001300000000
#02112:0013000000000000
#02116:0000001300000000
#0241b:1300001313000013
#02419:0000000000130000
#02412:00000013000013000000000013000000
#02415:00130000160000001400000000000000
#02416:0000000000001414
#02418:0013000000000000
#02612:0013000000130000
#02618:0013000000130000
#0261b:0000001300000013
#02615:0000261300000013
#02616:24
#02614:0028
#02613:0000002a
#02712:13131300
#02716:0013001300130000
#02714:00130013001300130013001300000000
#02718:0000000000000012
#0271c:0022000000000000
#0271b:00220022
#0271a:0000002200220000
#02719:0022
#02715:29
#02710:41
#0301b:13131313
#03012:12
#03016:0000001200000012
#03014:00000012
#0311b:13131313
#03112:1200000000120000
#03116:0000000000000012
#03114:00000012
#03316:0000001314001400
#0331b:00000000000013000000000000001313
#03312:0000000000130000
#03317:0000000000130000
#03712:000013132c0000002c00000000230000
#0371b:00000000000013130000000023000000
#03715:0000000000000023
#03718:00000000000000000000000000000023
#04612:54141414
#0461b:13000013
#04617:0000001300000013
#04712:14141414
#0471b:0013000000130000
#04719:0013
#0481a:14141414
#04814:0000000000000013
#04812:13000013
#04816:0000001300000000
#04916:13
#04917:0000000000130013
#0491a:14141414
#04912:0000000000130013
#0531a:00000000000000000000141400000000
#05312:2600000000000000000000002c001414
#0531c:52
#05412:00000013000000001300000013000000
#0541b:5300005300001300
#05418:00000000000000530000000000001300
#05415:00000053000000005300130000000000
#05419:00530000000000000000000000000000
#05417:0053000000000000
#06012:00000000000000000000000000130013
#06016:0000000028000013
#06013:00000000000000000013001300000000
#06017:0000270000130000
#06014:00000000001300130000000000000000
#06018:2600001300000000
#06015:00130013000000000000000029000000
#06019:0013000000000000
#06115:00000000000000130000000023001313
#06118:0000001300002300
#06112:0013
#0611b:0013
#06114:2a
#02512:1300001313000013
#02514:0000000000130000
#0251b:00000013000013000000000013000000
#02517:0014
#02516:0000000000001414
#02518:00130000000000000000000000000000
#02515:0013160000000000
#05012:1313130000130013
#05015:00000013
#0501b:1313130000130013
#05018:00000013
#05010:41
#05118:1316131300160013
#05115:0000000013130000
#05112:0000131600001316
#0511b:00001313
#0551b:00000013000000001300000023000000
#05515:00000000000000530000000000001300
#05518:00000053000000005300130000000000
#05512:5300005300002300
#05514:00530000000000000000000000000000
#05516:0053000000000000
#05612:00000013000000001300000000000000
#0561b:5300005300230000
#05618:00000000000000530000000023000000
#05615:00000053000000005300000000002300
#05619:00530000000000000000000000000000
#05617:0053000000000000
#0571b:00000013000000000000001300000000
#05718:00000053000000005300130000000000
#05716:0053000000001300
#05719:00000000000000000000000000130000
#05714:00530000000000000000000000001300
#05717:00000000000000000000000000000013
#05712:5300005300000000
#05715:00000000000000530000000000000000
#0581b:00000013000000001300130000001300
#05815:00000000000000530000130000001300
#05818:00000053000000005300000013000000
#05812:5300005300001300
#05810:41
#05814:00530000000000000000000000000000
#05816:0053000000000000
#05912:00000013000000001300130000001300
#05918:00000000000000530000130000001300
#05915:00000053000000005300000023000000
#0591b:5300005300002300
#05919:00530000000000000000000000000000
#05917:0053000000000000
#06216:00000000002400002800000000000000
#06219:0000000000230023
#06215:29
#06212:0029002400002800
#06214:0000000000230023
#0621a:00240000
#03412:2c
#05214:00520000005200005200000052000000
#05216:00005200000052000052000000520000
#05218:00000052000000520000520000005200
#0521a:00000000520000005200005200000052
#0521c:00000052
#05212:52520000
#06617:000000000000000000000000000000000000000000000000000000000000000000000000000000000000000000000000000000000000000000000000000000000000000000000072520000000000000000000000000000000000000000000000000000000000000000000000000000000000000000000000000000000000000000000000000000000000000000000000000000000000000000000000000000000000000000000000000000000000000000000000000000000000000000000000
#03552:1400001400001400
#0355a:1400001400001400
#00056:63
#00057:00000053
#0155a:6400000000140000
#01556:0000140000140000
#01552:0000145400000000
#01756:0000000000000063
#01757:0000000000530000
#02057:53
#02056:0000006300000000
#02052:0000000000530000
#0205b:0000000000000063
#03857:0000005300000063
#0385b:53
#04152:53
#04252:0000530000000053
#04258:0013
#0425b:00630000
#04255:0013
#04355:0013000000130000
#04358:0000001300000000
#0435b:0000000000000053
#05352:3600001c
#06452:54
#0645a:64
#00152:53
#00157:0053
#0025b:63
#00256:00000000000000230000000000000000
#00356:63
#00357:0053
#00752:53
#00756:0000006300000000
#00957:6300000000530000
#0095b:0000006300000013
#0395b:0063000000530000
#04052:63
#04056:0000006300000000
#04552:0013
#0115a:44
#01152:3400005300330000
#01156:000000000000000000000000000000000000000000000000000000000000000000000000000000000000000000000000000000000000000000000000000000000000000000000000000000000000000000000000000000000000000000000000000000000000000000000000000000000000000000000000000000000000000000000000000000000000000000000000000000000000000000000000000000000000000000000000000000000000000000000000000000000000000000000000002300000000000000000000000000000000000000000000000000000000000000000000000000000000000000000000000000000000000000000000000000000000000000000000000000000000000000000000000000000000000000000000000000000000000000000000000000000000000000000000000000000000000000000000000000000000000000000000000000000000000000000000000000000000000000000000000000000000000000000000000000000000000000000000
#0115b:0000006300430000
#01157:0023
#01256:00001414
#01252:14
#01352:13
#01356:00001414
#0145b:13
#01456:00001414
#01656:1414000000000000
#02157:0053000000000000
#0215b:0000005300000000
#02152:0053000000000000
#02156:0000006300000000
#02752:23232313
#02756:0023002300230000
#02754:00530053005300530053005300000000
#0275b:00000012
#02755:19
#0285c:5200000000000052
#02858:0000005200000000
#02958:0052000000000000
#03052:62
#03056:0000006200000000
#03152:52
#03256:000000000000000000000000000000000000000000000000000000000000000000000000000000000000000000000000002300000000000000000000000000000000000000000000000000000000000000000000000000000000000000000000000000000000000000000000000000000000000000000000000000000000000000000000000000000000000000000000000000000000000000000000000000000000000000000000000000000000000000000000000000000000000000000000000000000000000000000000000000000000000000000000000000000000000000000000000000000000000000000000000000000000000000000000000000000000000000000000000000000000000000000000000000000000000000000000000000000000000000000000000000000000000000000000000000000000000000000000000000000000000000000000000000000000000000000000000000000000000000000000000000000000000000000000000000000000000000000000
#03252:5300330000000053
#03257:0023000000000000
#0325b:6300430000000063
#03355:0013000000000000
#03358:0013000000000000
#03452:1c
#03656:0018
#03655:0000000000190000
#03654:0000001a
#03653:000000000000001b
#03752:1c1c1c00
#04452:1663000016000000
#04458:13161300
#04455:00130000
#0445b:0000005300000000
#04456:0000000000000053
#04657:0000005300000063
#0465b:53
#04652:34343434
#04956:53
#0495a:44444444
#0475b:0063000000530000
#04752:34343434
#06058:46
#06057:00470000
#06056:0048
#06055:00000049
#06154:4a
#0615b:0053
#06152:0053
#06158:00000013
#06155:00000013
#06255:49
#06252:0039000000001800
#06256:0018
#01852:0013000000000000
#01857:0013000000000000
#01856:0000001500000015
#01855:0000000000150000
#0485a:44444444
#04852:63
#04856:0000006300000000
#0055b:13
#02455:00160000
#02555:00160000
#05052:0000530000000053
#0505b:00630000
#05058:0013
#05055:0013
#05158:0000001300000013
#05155:0013000000130000
#0635b:53
#06352:53
#01952:00000013
#02656:14
#02654:0018
#02653:0000001a
#02655:00160000
#000360:13
#000320:00000023
#000371:00000013
#0013b1:23
#001320:13
#001370:0033
#002320:23
#0023b1:1300000000000023
#002361:00000000000000530000000000000000
#003361:13
#003321:0000002300000000
#003371:0013
#0043b1:23
#007321:13
#007361:00230000
#007361:0000001300000000
#007321:0000000000230000
#009371:13
#0093b1:00230000
#0093b1:0000001300000023
#009371:0000000000330000
#011321:0000001300230000
#011361:000000000000000000000000000000000000000000000000000000000000000000000000000000000000000000000000000000000000000000000000000000000000000000000000000000000000000000000000000000000000000000000000000000000000000000000000000000000000000000000000000000000000000000000000000000000000000000000000000000000000000000000000000000000000000000000000000000000000000000000000000000000000000000000000005300000000000000000000000000000000000000000000000000000000000000000000000000000000000000000000000000000000000000000000000000000000000000000000000000000000000000000000000000000000000000000000000000000000000000000000000000000000000000000000000000000000000000000000000000000000000000000000000000000000000000000000000000000000000000000000000000000000000000000000000000000000000000000000
#0113b0:0000001300230000
#011370:0053
#0153a0:14
#015320:00240000
#015361:14240000
#015321:0000001400000000
#0153a1:0000000000240000
#015360:0000001400240000
#0173b0:001300000000230000000000000000000000000000000000
#017320:000000000000000000001300000000230000000000000000
#017371:0000000000130000
#0173b1:0000000000000023
#017360:0000000000000013
#018320:0023000000000000
#0183b0:0000132300000000
#018320:0000000013230000
#0183b0:0000000000001323
#0193b0:00000013000000000000000000000000230000000000000000000000000000000000000000000000000000000000000000000000000000000000000000000000
#019321:00000013000000000000000000000000230000000000000000000000000000000000000000000000000000000000000000000000000000000000000000000000
#019381:00000000000000000000000000000000000000130000000023000000000000000000000000000000000000000000000000000000000000000000000000000000
#019350:00000000000000000000000000000000000000130000000023000000000000000000000000000000000000000000000000000000000000000000000000000000
#019320:00000000000000000000000000000000000000000000000000000013000000000000000000000000000000000000000023000000000000000000000000000000
#020370:13
#0203b0:00530000230000000000000000000000
#020360:00000000000013000000005300002300
#020320:00000000000000530000330000000000
#0203b1:0000000000000013
#020371:00000000000000000000000000000053
#021371:0033000000000000
#0213b1:00000053000033000000000000000000
#021361:0000000000330023
#021321:00000033
#021320:0013000000000000
#021360:00000053000033000000000000000000
#0213b0:0000000000330033
#021370:00000033
#022370:33
#0223a0:0024
#023320:1323000000000000
#0233b0:0000132300000000
#027320:13535323
#027340:00530053005300530053005300000000
#027360:0053005300530000
#0283c0:12
#028380:00220000
#028380:0000001200000000
#0283c0:0000000000220000
#0283c0:0000000000000012
#029380:0032000000000000
#0293c0:0000002200000000
#030320:12
#030360:00220000
#030360:0000001200000000
#030320:0000000000220000
#031320:12
#031360:0022
#032320:13230000
#032360:000000000000000000000000000000000000000000000000000000000000000000000000000000000000000000000000005300000000000000000000000000000000000000000000000000000000000000000000000000000000000000000000000000000000000000000000000000000000000000000000000000000000000000000000000000000000000000000000000000000000000000000000000000000000000000000000000000000000000000000000000000000000000000000000000000000000000000000000000000000000000000000000000000000000000000000000000000000000000000000000000000000000000000000000000000000000000000000000000000000000000000000000000000000000000000000000000000000000000000000000000000000000000000000000000000000000000000000000000000000000000000000000000000000000000000000000000000000000000000000000000000000000000000000000000000000000000000000000
#0323b1:13230000
#032371:0053000000000000
#032321:0000000000000013
#033351:0023000000000000
#0323b0:0000000000000013
#033380:0023000000000000
#036320:14000000000000000000000000000000000000000000000000000000000000000000000000000000000000000000545500000000000000000000000000000000000000000000000000000000000000000000000000000000000000000000555600000000000000000000000000000000000000000000000000000000000000000000000000000000000000000000565700000000000000000000000000000000000000000000000000000000000000000000000000000000000000000000575800000000000000000000000000000000000000000000000000000000000000000000000000000000000000000000585900000000000000000000000000000000000000000000000000000000000000000000000000000000000000000000595a000000000000000000000000000000000000000000000000000000000000000000000000000000000000000000005a5b00000000000000000000000000000000000000000000000000000000000000000000000000000000000000000000005b
#037320:2c
#0383b0:13
#038370:00230000
#038370:0000001300000000
#0383b0:0000000000230000
#038370:0000000000000013
#0393b0:0033000000000000
#039370:0000002300000000
#0393b0:0000000000130000
#039370:0000000000000023
#040320:13
#040360:00230000
#040360:0000001300000000
#040320:0000000000230000
#041320:13
#041360:0023
#042320:00130000
#042380:0023
#0423b1:00130000
#042351:0023
#042321:0000000000000013
#043351:0023000000000000
#0433b1:0000000000000013
#044381:23
#044321:0013000000000000
#044351:00230000
#0443b1:0000001300000000
#044381:0023
#044361:0000000000000013
#045321:0033333323000000
#0463b1:13
#046371:00230000
#046371:0000001300000000
#0463b1:0000000000230000
#046371:0000000000000013
#0473b1:0033000000000000
#047371:0000002300000000
#0473b1:0000000000130000
#047371:0000000000000023
#048321:13
#048361:00230000
#048361:0000001300000000
#048321:0000000000230000
#049361:13
#049321:0023
#050321:00130000
#050381:0023
#0503b0:00130000
#050350:0023
#050320:0000000000000013
#051350:0023000000000000
#0573b0:0000000013230000
#0613b0:0013
#061380:00000023
#061321:0013
#061351:00000023
#0633b1:13
#063321:00000026
#063320:13
#063380:00000026
#064320:14
#066370:0000002200000000
#0643a1:14
#066371:000000000000000000000000000000000000000000000000000000000000000000000000000000000000000000000000000000000000000000000000000000000000000000000022000000000000000000000000000000000000000000000000000000000000000000000000000000000000000000000000000000000000000000000000000000000000000000000000000000000000000000000000000000000000000000000000000000000000000000000000000000000000000000000000
#017970:13
#0179b0:002300000000000000000000000000000000000000000000
#017960:0000001300000000
#017920:000000000023000000000000
#019980:13
#0199b0:00000023000000000000000000000000000000000000000000000000000000000000000000000000000000000000000000000000000000000000000000000000
#019951:13
#019921:00000023000000000000000000000000000000000000000000000000000000000000000000000000000000000000000000000000000000000000000000000000
#0199b1:00130000
#019981:00000000000000000000000000000000000000230000000000000000000000000000000000000000000000000000000000000000000000000000000000000000
#019920:00130000
#019950:00000000000000000000000000000000000000230000000000000000000000000000000000000000000000000000000000000000000000000000000000000000
#019980:0000001300000000
#0199b0:00000000000000000000000000000000000000000000000000000023000000000000000000000000000000000000000000000000000000000000000000000000
#019951:0000001300000000
#019921:00000000000000000000000000000000000000000000000000000023000000000000000000000000000000000000000000000000000000000000000000000000
#022921:14
#0229a1:0024
#0459a1:0014
#046921:24
#052921:12
#0529a1:00220000
#052920:00120000
#0529a0:0022
#052941:0012
#0529c1:00000022
#052940:00000012
#0539c0:22
#0549b0:13
#054950:00000023000000000000000000000000
#0549b0:0000001300000000
#054950:0023
#055920:13
#055980:00000023000000000000000000000000
#055920:0000001300000000
#055980:0023
#0569b0:13
#056950:00000023000000000000000000000000
#0569b0:0000001300000000
#056950:0023
#057920:13
#057980:00000023000000000000000000000000
#057920:0000001300000000
#057980:0023
#058920:13
#058980:00000023000000000000000000000000
#058920:0000001300000000
#058980:0023
#0599b0:13
#059950:00000023000000000000000000000000
#0599b0:0000001300000000
#059950:0023
