This file was generated by Ched 2.7.0.0.
#TITLE ""
#ARTIST ""
#DESIGNER ""
#DIFFICULTY 0
#PLAYLEVEL
#SONGID ""
#WAVE ""
#WAVEOFFSET 0
#JACKET ""
#REQUEST "ticks_per_beat 480"
#00002: 4
#BPM01: 139
#00008: 01
#TIL00: ""
#VOLUME: ""
#HISPEED 00
#MEASUREHS 00
#00418:14
#0061a:14
#00714:14
#01518:14
#01614:14
#0171a:14
#01812:14
#01810:41
#01918:14
#02014:14
#0211a:14
#0311a:14
#03214:14
#03318:14
#03412:14
#0351a:14
#03614:14
#03718:14
#03710:41
#03912:14
#04018:14
#04118:14
#04214:14
#04314:14
#0441a:14
#0451a:14
#04618:0016
#04612:26
#0461f:00210000
#04712:16
#04718:0016
#04710:41
#05412:2616
#05512:16
#06618:14
#06714:14
#0021a:14
#00314:14
#00512:14
#03012:14
#03010:41
#03812:14
#0381f:11
#05018:0016
#05012:26
#05112:16
#05118:0016
#05618:2616
#05718:16
#05710:41
#05812:1616
#05918:1616
#01012:26
#01018:0026
#01010:41
#01112:26
#01412:24
#06318:26
#06218:26
#06212:0026
#008380:14
#009380:24
#012380:14
#013380:24
#022320:1434
#023320:24
#024380:1434
#025380:24
#026340:1434
#027340:24
#0283a0:1434
#0293a0:24
#048320:1626
#049380:1626
#052320:1626
#053380:1626
#060320:1636
#061320:26
#063380:16
#065380:26
#068340:14000000340000003400000034343424
