This file was generated by Ched 2.7.0.0.
#TITLE ""
#ARTIST ""
#DESIGNER ""
#DIFFICULTY 0
#PLAYLEVEL
#SONGID ""
#WAVE ""
#WAVEOFFSET 0
#JACKET ""
#REQUEST "ticks_per_beat 480"
#00002: 4
#BPM01: 190
#00008: 01
#TIL00: ""
#VOLUME: ""
#HISPEED 00
#MEASUREHS 00
#0091a:14
#00914:00140000
#01112:14
#01118:00140000
#01114:0000000000000014
#0131a:14
#01318:0014
#01416:14
#01414:0014
#0171a:1414
#01714:00140000
#01710:41
#01812:1414
#01818:00140000
#02112:1414
#02118:00140000
#0221a:1414
#02214:00140000
#02518:14
#02514:00140000
#02714:14
#02718:00140000
#02712:0000000000000014
#0291a:1414
#02914:00140000
#03012:1414
#03018:00140000
#0311a:14
#03114:14
#03119:0014
#03113:0014
#0331a:1414
#03310:41
#03414:1414
#03518:1414
#03612:1414
#0371a:1414
#03714:00140000
#03814:1414
#0381a:00140000
#03918:1414
#03912:00140000
#04012:1414
#04018:00140000
#0411a:14
#04114:00140000
#04118:0014
#04112:00000014
#04312:14
#04318:00140000
#04314:0014
#0431a:00000014
#04518:14
#0451a:00003414
#04714:14
#04712:00003414
#0491a:14
#04914:0014
#05018:14
#05012:0014
#05318:00140000
#05314:0014
#0531a:00000014
#05312:24
#05310:41
#05412:14
#05518:14
#05714:00140000
#05718:0014
#05712:00000014
#0571a:14
#0581a:14
#05914:14
#06014:00000014
#06018:0014
#0611a:14140000
#06114:00001414
#06110:41
#0621a:14
#06312:14
#06512:14140000
#06518:00001414
#06612:14
#0671a:14
#06814:0014
#06818:00000014
#07718:00140000
#07714:0014
#0771a:00000014
#0771f:11
#07712:24
#07814:14
#07818:00140000
#07812:0014
#07914:00140000
#07918:0014
#07912:00000014
#0791a:24
#08018:14
#08014:00140000
#0801a:0014
#08114:00140000
#08116:0014
#08118:00000014
#08112:24
#0821a:2414
#08212:00140000
#08713:0000000000000014
#08719:0000000000000014
#08914:00140000
#08918:0014
#08912:00000014
#0891a:14
#0891f:21
#0901a:14
#09018:00140000
#09114:14
#09214:00000014
#09218:0014
#0931a:14140000
#09314:00001414
#09310:41
#0941a:14
#09418:00140000
#09512:14
#09712:14140000
#09718:00001414
#09812:14
#09814:00140000
#0991a:14
#10014:0014
#10018:00000014
#10112:14
#10114:00140000
#10116:0014
#10118:00000014
#1021a:14
#10213:0014
#10219:0014
#10312:0000000000000014
#1031a:0000000000000014
#05613:0024
#05619:0024
#06413:0024
#06419:0024
#08312:24
#08318:24
#0831a:0024
#08314:0024
#0841a:24
#08412:24
#09613:0024
#09619:0024
#10414:0024
#10418:0024
#0461a:34
#04812:34
#01212:0034340000000000
#02814:0034340000000000
#06910:41
#01058:0000001400000000
#0265a:0000001400000000
#02752:0000000000000064
#02854:0000001400000000
#01252:0000001400000000
#0455a:00000024
#04558:54
#04754:64
#04752:00000024
#0525a:0014
#05452:54
#0555a:0000000000000014
#05558:64
#0585a:64
#05954:54
#05952:0000000000000014
#0625a:64
#06352:64
#06355:0000000000000014
#06652:54
#0675a:54
#06757:0000000000000014
#08558:14
#08554:14
#08753:0000000000000054
#08759:0000000000000054
#0905a:64
#09058:00240000
#09154:54
#09152:0000000000000014
#0945a:64
#09458:00240000
#09552:64
#09555:0000000000000014
#09852:54
#09854:00240000
#0995a:54
#09957:0000000000000014
#10352:0000000000000054
#1035a:0000000000000054
#10454:0014
#10458:0014
#01154:0000000000000054
#0013a0:1424
#002340:1424
#003380:1424
#004320:1424
#0053a0:1424
#006340:1424
#007380:1424
#008320:1424
#009380:0000000014000034
#010380:0034002400000000
#011340:0000000014000034
#012320:0034342400000000
#015320:1434
#016320:34342400
#0193a0:14
#019380:0034
#0203a0:3424
#023320:14
#023340:0034
#024320:3424
#0253a0:0000000014000034
#0263a0:0034002400000000
#027320:0000000014000034
#028340:0034342400000000
#032380:1424
#032321:1424
#0423a1:1424
#044321:1424
#045381:14
#0453a1:00003454
#0463a1:34
#046381:0024
#047341:14
#047321:00003454
#048321:34
#048341:0024
#0513a1:14
#0523a1:0024
#054321:14
#054341:0024
#055381:14
#0553a1:0000003400340024
#0583a1:14
#058381:0024
#059341:14
#059321:0000003400340024
#0623a1:14
#062371:0024
#063321:14
#063351:0000003400340024
#066321:14
#066351:0024
#0673a1:14
#067371:0000003400340024
#069321:14
#070341:34
#071321:34
#072341:3424
#0733a1:14
#074381:34
#074391:0034
#0753a1:34
#076381:3424
#084321:14
#084341:0034
#085341:24
#0843a0:14
#084380:0034
#085380:24
#087330:1400003400340034
#088320:0024
#087391:1400003400340034
#0883a1:0024
#0903a1:1424
#090381:00540000
#091341:14
#091321:0000003400340024
#0943a1:1424
#094381:00540000
#095321:14
#095351:0000003400340024
#098321:1424
#098341:00540000
#0993a1:14
#099371:0000003400340024
#1033a1:1400003400340034
#104381:0024
#103320:1400003400340034
#104340:0024
