This file was generated by Ched 2.7.0.0.
#TITLE ""
#ARTIST ""
#DESIGNER ""
#DIFFICULTY 0
#PLAYLEVEL
#SONGID ""
#WAVE ""
#WAVEOFFSET 0
#JACKET ""
#REQUEST "ticks_per_beat 480"
#00002: 4
#BPM01: 128
#00008: 01
#TIL00: ""
#VOLUME: ""
#HISPEED 00
#MEASUREHS 00
#00518:14
#00618:14
#00714:14
#00814:14
#00810:00000041
#0091a:14
#01014:14
#0111a:14
#01214:14
#01318:14
#01412:14
#01410:00410000
#01518:14
#01612:14
#0171a:14
#01814:14
#01818:0014
#02014:0014
#02018:14
#02010:41
#01912:14
#0211a:14
#02214:14
#0221a:0014
#02312:14
#02418:14
#02412:0014
#03114:0014
#03218:14
#03318:0016
#03312:26
#0331f:21
#03310:0041
#03412:1616
#03518:16
#03512:0016
#03618:1616
#04112:14
#04118:0014
#04214:1414
#04412:0014
#0441a:24
#0451a:14
#04514:0014
#04618:1414
#0271f:11
#0481a:0014
#04812:24
#0431a:24
#04312:0024
#04310:41
#04712:24
#0471a:0024
#00310:41
#0013a0:14
#0023a0:24
#003320:14
#004320:24
#0253a0:14
#0263a0:24
#027320:14
#028320:24
#029380:14
#0303a0:34
#031380:24
#037320:16
#037340:0036
#038340:36
#038320:0026
#039380:16
#039360:0036
#040360:36
#040380:0026
