This file was generated by Ched 2.7.0.0.
#TITLE ""
#ARTIST ""
#DESIGNER ""
#DIFFICULTY 0
#PLAYLEVEL
#SONGID ""
#WAVE ""
#WAVEOFFSET 0
#JACKET ""
#REQUEST "ticks_per_beat 480"
#00002: 4
#BPM01: 128
#00008: 01
#TIL00: ""
#VOLUME: ""
#HISPEED 00
#MEASUREHS 00
#00314:14
#00318:0014
#00310:41
#00418:001300000000000000000000
#00415:000013000013000000000000
#0041b:000000131300000000000000
#00419:000000000000131300000000
#00413:000013
#00417:00000013
#00412:0000000000000014
#0051a:24141414
#00512:24141424
#00515:000000000024
#00518:000000000000000000000024
#0061b:23131300
#00616:0014000000000000
#00612:24
#0061a:00000024
#00615:00000000000000000000000000240000
#00815:000000000000001200000000000000000000000000000000
#00819:000000000000001200000000000000000000000000000000
#00814:00240000
#00818:00240000
#00810:00000041
#00919:14
#0091b:0023000023001300
#00918:0000230000230023
#01115:0013000013000013
#01112:0000130000130000
#01215:00000000130000000000000000000013
#01212:0000001300001300
#01218:0000000000000013
#0131b:13
#01312:0013001300130013
#01317:0013001300000013
#01315:00131300
#01319:0013
#0131a:00240024
#01415:1300130000000014
#01417:0013001300000000
#01412:0000001300001400
#01419:0013
#01414:00000000000000000013000000000000
#0141a:00240024
#01410:00410000
#01517:13
#01519:0013001300000000
#0151b:00130023
#01512:00241324
#01516:0000000000130000
#01616:00000000000000001200001200001200
#01614:13530000
#01619:1300005300000000
#01618:00000000000000000022000022000022
#01718:0013000000130000
#0171b:00130013
#0171a:2313
#01712:14170000000000000000000000000000141700000000000000000000000000001417000000000000000000000000000014170000000000000000000000000000
#01819:1313
#01817:0013000000130000
#0181b:00130013
#01812:14170000000000000000000000000000141700000000000000000000000000001417000000000000000000000000000014170000000000000000000000000000
#0191a:14141414
#01917:00170000000000000000000000000000001700000000000000000000000000000017000000000000000000000000000000170000000000000000000000000000
#01915:0013000000130000
#01912:00130013
#01913:0013
#0201a:14141414
#02017:00170000000000000000000000000000001700000000000000000000000000000017000000000000000000000000000000170000000000000000000000000000
#02015:0013001300000000
#02016:00000000000000000000001300000000
#02012:2300230023000013
#02010:41
#02112:0000001300001300
#02114:0013
#02119:0013
#0211b:0000000000130000
#02116:1300240000132400
#0221b:13000013001300001300000013000000
#0221b:0013
#02212:0000000000130013
#02217:0000000000130000
#02216:13241324
#02214:0013001300000000
#0231b:1300001300001300
#02316:00130000240013000000000024000000
#02312:00000013000000000000130000001300
#02314:0013
#02319:0013
#02317:0000000000130000
#0251a:1400000000240000
#02517:0000000000000000000014343400000000000000000000000000000000000000
#02512:0000000000000000240014343400000000000000000000000000000000000000
#02515:24
#02516:0000000000230000
#02514:0000000000000000000000000000003400000000000000000000230000000000
#02518:00000000000000340000000000240000
#02519:0000000000000000000000000000003400000000000000000000000000000000
#02513:00000000000000340000000000000000
#02615:00000000143400000000000000000000
#02615:00000000005400000000000000000000
#02612:230000000000252525000000
#02616:24
#02619:000000000000000000252525
#0261a:000000000000340034003400540000540000000000000000000000000000000000000000000000000000000000000000
#02716:0000000000000000000000000000000014000000240000000000000000130000
#02712:0000000000000000000000000000000000000000003333330000140000000000
#0271f:11
#02714:26
#0271a:00000000000000000000240000240000
#02812:001414001400000000000000
#02817:24140000
#0281a:000000000000001414001400
#02815:00002414
#03112:1400000000000016
#03118:00000000000013002400001500002600
#03114:0014
#0311a:24
#03115:0000002300000000
#03113:00000000000000000000002500000000
#02912:2414141400141414
#02915:0014
#02917:24
#0301a:0014141400141414
#03017:0014
#03015:24
#03216:13
#0321a:0014
#03212:00001426
#03215:0000000000160000
#03219:00130000
#03218:00000026
#0101b:0000002300001300
#01018:0000230000000013
#03318:00261626
#03312:0000130013000013
#03315:0000001300000000
#03317:0000000000130013
#03314:00000000000000000000001300000000
#0331f:21
#03310:0041
#03418:16261626
#03415:00130000000000000000000000001500
#03417:0000001300000000
#03412:0000000024242400
#03512:00261626
#0351b:0000130013000013
#03518:2600001300000000
#03516:0000000000130013
#03519:00000000000000000000001300000000
#03612:16261626
#03618:00130000000000000000000000000000
#03616:00000000000013000000000000351500
#0361a:0000000024242400
#03712:14141400
#03715:0000000000000000000000001400000000000014000000000000000014000000
#03718:00261626
#03818:1600261316002600
#03817:0014000000000000
#03812:00000000140000000016000000000000
#03815:00000000000000130000000000000000
#03917:0015000000000000
#03912:00152500
#03914:0000001500000025
#03919:00151513
#03918:0000000000120000
#0391a:0000000000000014
#03913:00000000000000000000002500000000
#04015:00000013
#04012:00000000000000240000130000000000
#0401b:0000000000130000
#0401a:00000000000000240000000000000000
#04018:00240023
#04014:00000000002400000000000000000000
#04019:25
#04114:0014
#04113:00000014
#0411a:00002424
#04115:23
#04418:00000000000000000000140000540000
#0441a:0000000000000000000000000000000024000000000000740000000000000000
#04412:00002424
#04416:0000000000000000000000000000000000000000000000000000000000740000
#04515:0014000000000000
#04516:0000000014000014
#04512:24252423
#04519:00250000
#0451a:54
#04616:00140000
#04612:25000024
#04619:25
#0461a:00240000
#0461b:0023
#04617:00000000000000000000000024240000
#04819:00000000000000000012001200001200
#04815:0000000012000012
#04817:0000000000120000
#04219:00140000
#04218:0014
#0421a:24000024
#04215:00000000000000000000000024240000
#04212:24242400
#00115:26
#00719:00000000000000000000000024240000
#00713:00000000000000000000000024240000
#00712:00240000
#00717:00000000002400000000000000000000
#02415:23230000
#0241a:0000000000000000000000000000000000000000000054545400000000000000
#02412:0000000000000000000000000000000000000000000064646400000000000000
#04312:00240024
#04317:24000000242400000000000000000000
#04314:00000000000000000000000000240000
#04318:00000000000000000000000000240000
#0431a:00000024
#04315:0024
#04310:41
#0471a:00240024
#04715:24000000242400000000000000000000
#04717:0024
#04714:00000000000000000000000000240000
#04718:00000000000000000000000000240000
#04712:00000024
#0491c:52
#04912:52
#00155:16
#00354:64
#00358:0064
#00457:00000063
#00552:14
#0055a:14
#00656:0024000000000000
#00652:54
#0075a:14
#00755:14
#00752:0014
#00757:0014
#00753:00000000000000000000000000640000
#00759:00000000000000000000000000640000
#00852:14000016
#0085a:14
#00854:00640000
#00855:000000000000002200000000000000000000000000000000
#00859:000000000000002200000000000000000000000000000000
#00858:00540016
#00958:0000000000000063
#01152:0000130000130000
#01155:0000000000000063
#0135b:13
#01355:0063
#01352:0000000000230053
#01359:0013
#01357:0000000000000013
#01455:2300000000000024
#01454:00000000000000000013000000000000
#01452:00000064
#01459:0013
#0155b:00000013
#0175b:00130013
#01752:24670000000000000000000000000000246700000000000000000000000000002467000000000000000000000000000024670000000000000000000000000000
#0185b:00130013
#01852:24670000000000000000000000000000246700000000000000000000000000002467000000000000000000000000000024670000000000000000000000000000
#0195a:24242424
#01957:00570000000000000000000000000000005700000000000000000000000000000057000000000000000000000000000000570000000000000000000000000000
#01952:00130013
#0205a:24242424
#02057:00570000000000000000000000000000005700000000000000000000000000000057000000000000000000000000000000570000000000000000000000000000
#02052:0000000063000063
#02056:00000000000000000000006300000000
#0215a:14
#02152:00000013
#02156:63
#0225b:00000013
#02356:00130000000000000000000000000000
#0255a:6444
#02555:0044
#02552:00000000002400000000000000000000
#02557:00000000002400000000000000000000
#02656:64
#02652:13
#02754:66
#0275a:00000000000000000000140000140000
#02752:00000000000000000000000000640000
#02756:0000000000000000000000000000000000000000640000000000000000230000
#02857:00640000
#02855:00000054
#02852:001400
#0285a:000000000014
#0315a:64
#03152:6400000000000066
#03158:0000000014000016
#03153:00000000000000000000001500000000
#03055:64
#02957:64
#02952:14
#03256:23
#03254:00130000
#03259:00130000
#03358:16
#03352:1600000013000063
#01252:0000006300000000
#0105b:0000006300000000
#03452:00130064
#03455:00230000000000000000000000002500
#03458:00000016
#03552:36
#0355b:0000000013000053
#03652:00000016
#03658:00230000000000000000000000000000
#0365b:00130000
#03656:0000000000000025
#0365a:00000054
#03758:46
#03755:0000000000000000000000000000000000000024000000000000000054000000
#03752:00000000000000006400003400000000
#03858:0016
#03852:00000000000000000016000000000000
#03952:1515
#03959:00150000
#03953:00000000000000000000001500000000
#03954:0000000000000065
#04052:00000000000000140000000000000000
#0405a:00000000000000140000000000000000
#04059:15
#0415a:00141414
#04152:00140000
#04255:00000000000000000000000000240000
#04252:14141400
#0425a:14
#04357:00000000002400000000000000000000
#04352:34
#0435a:0044
#04452:00150000
#04459:00150000
#04458:00000000000000000000640000640000
#0445a:0000000000000000000000000000000000000000000000240000000000000000
#04456:0000000000000000000000000000000000000000000000000000000000240000
#0245a:00000014
#02452:00000014
#01659:0000001300000000
#01654:00130000
#0455a:44
#04552:00353433
#04559:00650000
#04556:0064
#04652:65
#04659:45
#0465a:00440000
#0465b:0043
#04656:00640000
#04657:00000000000000000000000000240000
#04755:00000000002400000000000000000000
#0475a:44
#04752:0034
#04852:00160000
#04858:00160000
#04859:0000000000000062
#04855:0000000000000062
#003340:14
#004320:23
#003381:0014
#0043b1:23
#004371:00000013
#0053a1:24
#006321:14000024
#006361:0054000000000000
#0063a0:00000014
#0073a0:24
#006351:00000000000000000000000000140000
#007351:24
#007321:00142400
#007370:00000000001400002400000000000000
#007330:00000000000000000000000000140000
#008320:24
#007391:00000000000000000000000000140000
#0083a1:24
#008341:00140000
#008351:000000000000005200000000000000000000000000000000
#008321:00000026
#008380:00140026
#008390:000000000000005200000000000000000000000000000000
#009330:150000000000000000000000000000000000000000000000000000000000000000000000000000000000000000000000000000000000000000000000000000000000000000000000000000000000000000000000000000000000000000000000000000000000000000000000000000000000000000000000000000000000000000000000000000000000000000000000000000000000000000000000000000000000000000000000000000000000000000000000000000000000000000000000000000000000000000000000000000000000000000000000000000000000000000000000000000000000000000000000000000000000000000000000000000000000000000000000000000000000000000000000000000000000000000000000000000000000000000000000000000000000000000000000000000000000000000000000000000000000000000000000000000000000000000000000000000000000000000000000000000000000000000000000000000000000000000000000000000000000000000000000000000000000000000000000000000000000000000000000000000000000000000000000000000000000000000000000000000000000000000000000000000000000000000000000000000000000000000000000005500000000000000000000000000000000000000000000000000000000000000000000000000000000000000000000000000000000000000000000000000000000000000000000000000000000000000000000000000000000000000000000000000000000000000000000000000000000000000000000000000000000000000000000000000000000000000000000000000000000000000000000000000000000000000000000000000000000000000000000000000000000000000000000000000000000000000000000000000000000000000000000000000000000000000000000000000000000000000000000000000000000000000000000000000000000000000000000000000000000000000000000000000000000000000000000000000000000000000000000000000000000000000000000000000000000000000000000000000000000000000000000000000000000000000000000000000000000000000000000000000000000000000000000000000000000000000000000000000000000000000000000000000000000000000000000000000000000000000000000000000000000000000000000000000000000000000000000000000000000000000000000000000000000000000000000000000000000000000000000005500000000000000000000000000000000000000000000000000000000000000000000000000000000000000000000000000000000000000000000000000000000000000000000000000000000000000000000000000000000000000000000000000000000000000000000000000000000000000000000000000000000000000000000000000000000000000000000000000000000000000000000000000000000000000000000000000000000000000000000000000000000000000000000000000000000000000000000000000000000000000000000000000000000000000000000000000000000000000000000000000000000000000000000000000000000000000000000000000000000000000000000000000000000000000000000000000000000000000000000000000000000000000000000000000000000000000000000000000000000000000000000000000000000000000000000000000000000000000000000000000000000000000000000000000000000000000000000000000000000000000000000000000000000000000000000000000000000000000000000000000000000000000000000000000000000000000000000000000000000000000000000000000000000000000000000000000000000000000000000005500000000000000000000000000000000000000000000000000000000000000000000000000000000000000000000000000000000000000000000000000000000000000000000000000000000000000000000000000000000000000000000000000000000000000000000000000000000000000000000000000000000000000000000000000000000000000000000000000000000000000000000000000000000000000000000000000000000000000000000000000000000000000000000000000000000000000000000000000000000000000000000000000000000000000000000000000000000000000000000000000000000000000000000000000000000000000000000000000000000000000000000000000000000000000000000000000000000000000000000000000000000000000000000000000000000000000000000000000000000000000000000000000000000000000000000000000000000000000000000000000000000000000000000000000000000000000000000000000000000000000000000000000000000000000000000000000000000000000000000000000000000000000000000000000000000000000000000000000000000000000000000000000000000000000000000000000000000000000000000
#009320:00555555
#010320:55555555
#010330:005500000000000000000000000000000000000000000000000000000000000000000000000000000000000000000000000000000000000000000000000000000000000000000000000000000000000000000000000000000000000000000000000000000000000000000000000000000000000000000000000000000000000000000000000000000000000000000000000000000000000000000000000000000000000000000000000000000000000000000000000000000000000000000000000000000000000000000000000000000000000000000000000000000000000000000000000000000000000000000000000000000000000000000000000000000000000000000000000000000000000000000000000000000000000000000000000000000000000000000000000000000000000000000000000000000000000000000000000000000000000000000000000000000000000000000000000000000000000000000000000000000000000000000000000000000000000000000000000000000000000000000000000000000000000000000000000000000000000000000000000000000000000000000000000000000000000000000000000000000000000000000000000000000000000000000000000000000000000000000000005500000000000000000000000000000000000000000000000000000000000000000000000000000000000000000000000000000000000000000000000000000000000000000000000000000000000000000000000000000000000000000000000000000000000000000000000000000000000000000000000000000000000000000000000000000000000000000000000000000000000000000000000000000000000000000000000000000000000000000000000000000000000000000000000000000000000000000000000000000000000000000000000000000000000000000000000000000000000000000000000000000000000000000000000000000000000000000000000000000000000000000000000000000000000000000000000000000000000000000000000000000000000000000000000000000000000000000000000000000000000000000000000000000000000000000000000000000000000000000000000000000000000000000000000000000000000000000000000000000000000000000000000000000000000000000000000000000000000000000000000000000000000000000000000000000000000000000000000000000000000000000000000000000000000000000000000000000000000000000000005500000000000000000000000000000000000000000000000000000000000000000000000000000000000000000000000000000000000000000000000000000000000000000000000000000000000000000000000000000000000000000000000000000000000000000000000000000000000000000000000000000000000000000000000000000000000000000000000000000000000000000000000000000000000000000000000000000000000000000000000000000000000000000000000000000000000000000000000000000000000000000000000000000000000000000000000000000000000000000000000000000000000000000000000000000000000000000000000000000000000000000000000000000000000000000000000000000000000000000000000000000000000000000000000000000000000000000000000000000000000000000000000000000000000000000000000000000000000000000000000000000000000000000000000000000000000000000000000000000000000000000000000000000000000000000000000000000000000000000000000000000000000000000000000000000000000000000000000000000000000000000000000000000000000000000000000000000000000000000000005500000000000000000000000000000000000000000000000000000000000000000000000000000000000000000000000000000000000000000000000000000000000000000000000000000000000000000000000000000000000000000000000000000000000000000000000000000000000000000000000000000000000000000000000000000000000000000000000000000000000000000000000000000000000000000000000000000000000000000000000000000000000000000000000000000000000000000000000000000000000000000000000000000000000000000000000000000000000000000000000000000000000000000000000000000000000000000000000000000000000000000000000000000000000000000000000000000000000000000000000000000000000000000000000000000000000000000000000000000000000000000000000000000000000000000000000000000000000000000000000000000000000000000000000000000000000000000000000000000000000000000000000000000000000000000000000000000000000000000000000000000000000000000000000000000000000000000000000000000000000000000000000000000000000000000000000000000000000000000000
#011320:25
#009381:0000000000000013
#0103b1:0023000000000000
#0103b1:0000001300000000
#010381:0000000000230000
#011381:150000000000000000000000000000000000000000000000000000000000000000000000000000000000000000000000000000000000000000000000000000000000000000000000000000000000000000000000000000000000000000000000000000000000000000000000000000000000000000000000000000000000000000000000000000000000000000000000000000000000000000000000000000000000000000000000000000000000000000000000000000000000000000000000000000000000000000000000000000000000000000000000000000000000000000000000000000000000000000000000000000000000000000000000000000000000000000000000000000000000000000000000000000000000000000000000000000000000000000000000000000000000000000000000000000000000000000000000000000000000000000000000000000000000000000000000000000000000000000000000000000000000000000000000000000000000000000000000000000000000000000000000000000000000000000000000000000000000000000000000000000000000000000000000000000000000000000000000000000000000000000000000000000000000000000000000000000000000000000000000005500000000000000000000000000000000000000000000000000000000000000000000000000000000000000000000000000000000000000000000000000000000000000000000000000000000000000000000000000000000000000000000000000000000000000000000000000000000000000000000000000000000000000000000000000000000000000000000000000000000000000000000000000000000000000000000000000000000000000000000000000000000000000000000000000000000000000000000000000000000000000000000000000000000000000000000000000000000000000000000000000000000000000000000000000000000000000000000000000000000000000000000000000000000000000000000000000000000000000000000000000000000000000000000000000000000000000000000000000000000000000000000000000000000000000000000000000000000000000000000000000000000000000000000000000000000000000000000000000000000000000000000000000000000000000000000000000000000000000000000000000000000000000000000000000000000000000000000000000000000000000000000000000000000000000000000000000000000000000000000005500000000000000000000000000000000000000000000000000000000000000000000000000000000000000000000000000000000000000000000000000000000000000000000000000000000000000000000000000000000000000000000000000000000000000000000000000000000000000000000000000000000000000000000000000000000000000000000000000000000000000000000000000000000000000000000000000000000000000000000000000000000000000000000000000000000000000000000000000000000000000000000000000000000000000000000000000000000000000000000000000000000000000000000000000000000000000000000000000000000000000000000000000000000000000000000000000000000000000000000000000000000000000000000000000000000000000000000000000000000000000000000000000000000000000000000000000000000000000000000000000000000000000000000000000000000000000000000000000000000000000000000000000000000000000000000000000000000000000000000000000000000000000000000000000000000000000000000000000000000000000000000000000000000000000000000000000000000000000000000005500000000000000000000000000000000000000000000000000000000000000000000000000000000000000000000000000000000000000000000000000000000000000000000000000000000000000000000000000000000000000000000000000000000000000000000000000000000000000000000000000000000000000000000000000000000000000000000000000000000000000000000000000000000000000000000000000000000000000000000000000000000000000000000000000000000000000000000000000000000000000000000000000000000000000000000000000000000000000000000000000000000000000000000000000000000000000000000000000000000000000000000000000000000000000000000000000000000000000000000000000000000000000000000000000000000000000000000000000000000000000000000000000000000000000000000000000000000000000000000000000000000000000000000000000000000000000000000000000000000000000000000000000000000000000000000000000000000000000000000000000000000000000000000000000000000000000000000000000000000000000000000000000000000000000000000000000000000000000000000
#011391:00555555
#012391:55555525
#012381:005500000000000000000000000000000000000000000000000000000000000000000000000000000000000000000000000000000000000000000000000000000000000000000000000000000000000000000000000000000000000000000000000000000000000000000000000000000000000000000000000000000000000000000000000000000000000000000000000000000000000000000000000000000000000000000000000000000000000000000000000000000000000000000000000000000000000000000000000000000000000000000000000000000000000000000000000000000000000000000000000000000000000000000000000000000000000000000000000000000000000000000000000000000000000000000000000000000000000000000000000000000000000000000000000000000000000000000000000000000000000000000000000000000000000000000000000000000000000000000000000000000000000000000000000000000000000000000000000000000000000000000000000000000000000000000000000000000000000000000000000000000000000000000000000000000000000000000000000000000000000000000000000000000000000000000000000000000000000000000000005500000000000000000000000000000000000000000000000000000000000000000000000000000000000000000000000000000000000000000000000000000000000000000000000000000000000000000000000000000000000000000000000000000000000000000000000000000000000000000000000000000000000000000000000000000000000000000000000000000000000000000000000000000000000000000000000000000000000000000000000000000000000000000000000000000000000000000000000000000000000000000000000000000000000000000000000000000000000000000000000000000000000000000000000000000000000000000000000000000000000000000000000000000000000000000000000000000000000000000000000000000000000000000000000000000000000000000000000000000000000000000000000000000000000000000000000000000000000000000000000000000000000000000000000000000000000000000000000000000000000000000000000000000000000000000000000000000000000000000000000000000000000000000000000000000000000000000000000000000000000000000000000000000000000000000000000000000000000000000000005500000000000000000000000000000000000000000000000000000000000000000000000000000000000000000000000000000000000000000000000000000000000000000000000000000000000000000000000000000000000000000000000000000000000000000000000000000000000000000000000000000000000000000000000000000000000000000000000000000000000000000000000000000000000000000000000000000000000000000000000000000000000000000000000000000000000000000000000000000000000000000000000000000000000000000000000000000000000000000000000000000000000000000000000000000000000000000000000000000000000000000000000000000000000000000000000000000000000000000000000000000000000000000000000000000000000000000000000000000000000000000000000000000000000000000000000000000000000000000000000000000000000000000000000000000000000000000000000000000000000000000000000000000000000000000000000000000000000000000000000000000000000000000000000000000000000000000000000000000000000000000000000000000000000000000000000000000000000000000000000000000000000000000000000000000000000000000000000000000000000000000000000000000000000000000000000000000000000000000000000000000000000000000000000000000000000000000000000000000000000000000000000000000000000000000000000000000000000000000000000000000000000000000000000000000000000000000000000000000000000000000000000000000000000000000000000000000000000000000000000000000000000000000000000000000000000000000000000000000000000000000000000000000000000000000000000000000000000000000000000000000000000000000000000000000000000000000000000000000000000000000000000000000000000000000000000000000000000000000000000000000000000000000000000000000000000000000000000000000000000000000000000000000000000000000000000000000000000000000000000000000000000000000000000000000000000000000000000000000000000000000000000000000000000000000000000000000000000000000000000000000000000000000000000000000000000000000000000000000000000000000000000000000000000000000000000000000000000000000000
#011350:0000000000000013
#012320:0023000000000000
#012320:0000001300000000
#012350:0000000000230000
#013351:00001323
#013321:0000000000530000
#013321:0000000000000013
#014351:53
#014321:0023000000000000
#014321:00000014
#014351:0000000000000054
#015321:24
#015371:0013
#0153b1:0000000000332300
#017321:14570000000054000000000000000000345700000000540000000000000000003457000000005400000000000000000034570000000054000000000000000000
#018321:34570000000054000000000000000000345700000000540000000000000000003457000000005400000000000000000034570000000054000000000000000000
#019321:24
#0193a0:1400005400000000340000540000000034000054000000003400005400000000
#019370:00570000000000000000000000000000005700000000000000000000000000000057000000000000000000000000000000570000000000000000000000000000
#0203a0:3400005400000000340000540000000034000054000000003400005400000000
#020370:00570000000000000000000000000000005700000000000000000000000000000057000000000000000000000000000000570000000000000000000000000000
#0213a0:24
#020321:0000000013000033
#020361:00000000000000000000003300000000
#021361:33
#021321:00230000
#024381:13330000330000003300000000000000
#0243a1:00000000000000000054002400000000
#024350:00133300
#024320:00000000000000000054002400000000
#0253a0:1424
#025370:0000000000000000340054343400000000000000000000000000000000000000
#025380:00000000000000340000000000000000
#025390:0000000000000000000000000000003400000000000000000000000000000000
#025321:0000000000000000140054343400000000000000000000000000000000000000
#025331:00000000000000340000000000000000
#025341:0000000000000000000000000000003400000000000000000000000000000000
#025351:0024
#026361:14
#0263a1:000000343434240000000000000000000000000000000000
#027341:16
#027321:0023
#027361:0000000000000000000000000000000000000000140000000000000000530000
#027321:0000000000000000000000000000000000000000003333330000340000000000
#028321:24
#028371:00140000
#0283a1:0024
#028351:00000014
#029321:24
#029370:14
#0303a0:24
#030351:14
#031321:34
#031351:00530000230000000000000000000000
#0313a0:14
#031380:00530000230000000000000000000000
#031320:0000000000000016
#032360:53
#032340:00230000
#032380:00000016
#0323b0:000000000000000000000000000000000000005300000053
#033380:26
#032321:000000000000000000000000000000000000165300000053
#033321:26
#033321:0000000000000013
#034351:00530000000000000000000000000000
#034321:00230000
#034321:00000014
#034351:0000000000000055
#035321:26
#0353b1:0000000000000013
#036381:00530000000000000000000000000000
#0363b1:00230000
#0363a1:00000014
#036361:00000000000000000000000000355500
#037381:26
#037321:00000000000000001400002400000000
#037351:0000000000000000000000000000000000000054000000000000000000000000
#037351:0000000000000014
#038321:0024000000000000
#038381:00000016
#0383b1:000000000000000000000000000000000000005300000053
#039391:25
#038320:000000000000000000000000000000000000165300000053
#039320:25
#039340:0000000000000015
#040320:00230000
#040380:00000013
#041380:33
#0413a0:005400000000240000000000000000000000000000000000
#041351:13
#041321:005400000000240000000000000000000000000000000000
#042351:00000000000000000000000000140000
#043321:24
#043371:00000000001400000000000000000000
#0433a1:0024
#043341:00000000000000000000000000140000
#044341:34
#044321:0053000000000053250000000000000000000000000000000000000000000000
#043380:00000000000000000000000000140000
#044380:34
#0443b0:0053000000000053000000000000000000000000000000000000000000000000
#044390:00250000
#045390:00150000
#045360:0054
#0453b0:00000023
#046320:1523
#046360:00340000
#046370:00000000000000000000000000140000
#0473a0:24
#047350:00000000001400000000000000000000
#047320:0024
#047340:00000000000000000000000000140000
#048340:34
#048320:0053000000000053260000000000000000000000000000000000000000000000
#047381:00000000000000000000000000140000
#048381:34260000
#0483b1:0053000000000053000000000000000000000000000000000000000000000000
#048351:0000000000001232
#049321:22
#048390:0000000000000012
#0493c0:22
#016990:130000000000000000000000000000000000000000000000000000000000000000000000000000000000000000000000000000000000000000000000000000000000000000000000000000000000000000000000000000000000000000000000000000000000000000000000000000000000000000000000000000000000000000000000000000000000000000000000000000000000000000000000000000000000000000000000000000000000000000000000000000000000000000000000000000000000000000000000000000000000000000000000000000000000000000000000000000000000000000000000000000000000000000000000000000000000000000000000000000000000000000000000000000000000000000000000000000000000000000000000000000000000000000000000000000000000000000000000000000000000000000000000000000000000000000000000000000000000000000000000000000000000000000000000000000000000000000000000000000000000000000000000000000000000000000000000000000000000000000000000000000000000000000000000000000000000000000000000000000000000000000000000000000000000000000000000000000000000000000000000000000000000000000000000000000000000000000000000000000000000000000000000000000000000000000000000000000000000000000000000000000000000000000000000000000000000000000000000000000000000000000000000000000000000000000000000000000000000000000000000000000000000000000000000000000000000000000000000000000000000000000000000000000000000000000000000000000000000000000000000000000000000000000000000000000000000000000000000000000000000000000000000000000000000000000000000000000000000000000535353230000000000000000000000000000000000000000000000000000000000000000000000000000000000000000000000000000000000000000000000000000000000000000000000000000000000000000000000000000000000000000000000000000000000000000000000000000000000000000000000000000000000000000000000000000000000000000000000000000000000000000000000000000000000000000000000000000000000000000000000000000000000000000000000000000000000000000000000000000000000000000000000000000000000000000000000000000000000000000000000000000000000000000000000000000000000000000000000000000000000000000000000000000000000000000000000000000000000000000000000000000000000000000000000000000000000000000000000000000000000000000000000000000000000000000000000000000000000000000000000000000000000000000000000000000000000000000000000000000000000000000000000000000000000000000000000000000000000000000000000000000000000000000000000000000000000000000000000000000000000000000000000000000000000000000000000000000000000000000000000000000000000000000000000000000000000000000000000000000000000000000000000000000000000000000000000000000000000000000000000000000000000000000000000000000000000000000000000000000000000000000000000000000000000000000000000000000000000000000000000000000000000000000000000000000000000000000000000000000000000000000000000000000000000000000000000000000000000000000000000000000000000000000000000000000000000000000000000000000000000000000000000000000000000000000000000000000000000000000000000000000000000000000000000000000000000000000000000000000000000000000000000000000000000000000000000000000000000000000000000000000000000000000000000000000000000000000000000000000000000000000000000000000000000000000000000000000000000000000000000000000000000000000000000000000000000000000000000000000000000000000000000000000000000000000000000000000000000000000000000000000000000000000000000000000000000000000000000000000000000000000000000000000000000000000000000000000000000000000000000000000000000000000000000000000000000000000000000000000000000000000000000000000000000000000000000000000000000000000000000000000000000000000000000000000000000000000000000000000000000000000000000000000000000000000000000000000000000000000000000000000000000000000000000000000000000000000000000000000000000000000000000000000000000000000000000000000000000000000000000000000000000000000000000000000000000000000000000000000000000000000000000000000000000000000000000000000000000000000000000
#016941:130000000000000000000000000000000000000000000000000000000000000000000000000000000000000000000000000000000000000000000000000000000000000000000000000000000000000000000000000000000000000000000000000000000000000000000000000000000000000000000000000000000000000000000000000000000000000000000000000000000000000000000000000000000000000000000000000000000000000000000000000000000000000000000000000000000000000000000000000000000000000000000000000000000000000000000000000000000000000000000000000000000000000000000000000000000000000000000000000000000000000000000000000000000000000000000000000000000000000000000000000000000000000000000000000000000000000000000000000000000000000000000000000000000000000000000000000000000000000000000000000000000000000000000000000000000000000000000000000000000000000000000000000000000000000000000000000000000000000000000000000000000000000000000000000000000000000000000000000000000000000000000000000000000000000000000000000000000000000000535353230000000000000000000000000000000000000000000000000000000000000000000000000000000000000000000000000000000000000000000000000000000000000000000000000000000000000000000000000000000000000000000000000000000000000000000000000000000000000000000000000000000000000000000000000000000000000000000000000000000000000000000000000000000000000000000000000000000000000000000000000000000000000000000000000000000000000000000000000000000000000000000000000000000000000000000000000000000000000000000000000000000000000000000000000000000000000000000000000000000000000000000000000000000000000000000000000000000000000000000000000000000000000000000000000000000000000000000000000000000000000000000000000000000000000000000000000000000000000000000000000000000000000000000000000000000000000000000000000000000000000000000000000000000000000000000000000000000000000000000000000000000000000000000000000000000000000000000000000000000000000000000000000000000000000000000000000000000000000000000000000000000000000000000000000000000000000000000000000000000000000000000000000000000000000000000000000000000000000000000000000000000000000000000000000000000000000000000000000000000000000000000000000000000000000000000000000000000000000000000000000000000000000000000000000000000000000000000000000000000000000000000000000000000000000000000000000000000000000000000000000000000000000000000000000000000000000000000000000000000000000000000000000000000000000000000000000000000000000000000000000000000000000000000000000000000000000000000000000000000000000000000000000000000000000000000000000000000000000000000000000000000000000000000000000000000000000000000000000000000000000000000000000000000000000000000000000000000000000000000000000000000000000000000000000000000000000000000000000000000000000000000000000000000000000000000000000000000000000000000000000000000000000000000000000000000000000000000000000000000000000000000000000000000000000000000000000000000000000000000000000000000000000000000000000000000000000000000000000000000000000000000000000000000000000000000000000000000000000000000000000000000000000000000000000000000000000000000000000000000000000000000000000000000000000000000000000000000000000000000000000000000000000000000000000000000000000000000000000000000000000000000000000000000000000000000000000000000000000000000000000000000000000000000000000000000000000000000000000000000000000000000000000000000000000000000000000000000000000000000000000000000000000000000000000000000000000000000000000000000000000000000000000000000000000000000000000000000000000000000000000000000000000000000000000000000000000000000000000000000000000000000000000000000000000000000000000000000000000000000000000000000000000000000000000000000000000000000000000000000000000000000000000000000000000000000000000000000000000000000000000000000000000000000000000000000000000000000000000000000000000000000000000000000000000000000000000000000000000000000000
#0249a0:000000000000000000000000000000000000000000000000000000000000000000000000000000000000000000000000000000000000000000000000000000000000000000000000000000000000000000000000000000000000000000000000000000000000000000000000000000000000000000000000000000000000000000000000000000000000000000000000000000000000000000000000000000000000000000000000000000000000000000000000000000000000000000000000000000000000000000000000000000000000000000000000000000000000000000000000000000000000000000000000000000000000000000000000000000000000000000000000000000000000000000000000000000000000000000000000000000000000000000000000000000000000000000000000000000000000000000000000000000000000000000000000000000000000000000000000000000000000000000000000000000000000000000000000000000000000000000000000000000000000000000000000000000000000000000000000000000000000000000000000000000000000000000000000000000000000000000000000000000000000000000000000000000000000000000000000000000000000000000000000000000000000000000000000000000000000000000000000000000000000000000000000000000000000000000000000000000000000000000000000000000000000000000000000000000000000000000000000000000000000000000000000000000000000000000000000000000000000000000000000000000000000000000000000000000000000000000000000000000000000000000000000000000000000000000000000000000000000000000000000000000000000000000000000000000000000000000000000000000000000000000000000000000000000000000000000000000000000000000000000000000000000000000000000000000000000000000000000000000000000000000000000000000000000000000000000000000000000000000000000000000000000000000000000000000000000000000000000000000000000000000000000000000000000000000000000000000000000000000000000000000000000000000000000000000000000000000000000000000000000000000000000000000000000000000000000000000000000000000000000000000000000000000000000000000000000000000000000000000000000000000000000000000000000000000000000000000000000000000000000000000000000000000000000000000000000000000000000000000000000000000000000000000000000000000000000000000000000000000000000000000000000000000000000000000000000000000000000000000000000000000000000000000000000000000000000000000000000000000000000000000000000000000000000000000000000000000000000000000000000000000000000000000000000000000000000000000000000000000000000000000000000000000000000000000000000000000000000000000000000000000000000000000000000000000000000000000000000000000000000000000000000000000000000000000000000000000000000000000000000000000000000000000000000000000000000000000000000000000000000000000000000000000000000000000000000000000000000000000000000000000000000000000000000000000000000000000000000000000000000140000000000000000000000000000000000000000000000000000000000000000000000000000000000000000000000000000000000000000000000000000000000000000000000000000000000000000000000000000000000000000000000000000000000000000000000000000000000000000000054240000000000000000000000000000000000000000000000000000000000000000000000000000000000000000000000000000000000000000000000000000000000000000000000000000000000000000000000000000000000000000000000000000000000000000000000000000000000000000000000000000000000000000000000000000000000000000000000000000000000000000000000000000000000000000000000000000000000000000000000000000000000000000000000000000000000000000000000000000000000000000000000000000000000000000000000000000000000000000000000000000000000000000000000000000000000000000000000000000000000000000000000000000000000000000000000000000000000000000000000000000000000000000000000000000000000000000000000000000000000000000000000000000000000000000000000000000000000000000000000000000000000000000000000000000000000000000000000000000000000000000000000000000000000000000000000000000000000000000000000000000000000000000000000000000000000000000000000000000000000000000000000000000000000000000000000000000000000000000000000
#024921:000000000000000000000000000000000000000000000000000000000000000000000000000000000000000000000000000000000000000000000000000000000000000000000000000000000000000000000000000000000000000000000000000000000000000000000000000000000000000000000000000000000000000000000000000000000000000000000000000000000000000000000000000000000000000000000000000000000000000000000000000000000000000000000000000000000000000000000000000000000000000000000000000000000000000000000000000000000000000000000000000000000000000000000000000000000000000000000000000000000000000000000000000000000000000000000000000000000000000000000000000000000000000000000000000000000000000000000000000000000000000000000000000000000000000000000000000000000000000000000000000000000000000000000000000000000000000000000000000000000000000000000000000000000000000000000000000000000000000000000000000000000000000000000000000000000000000000000000000000000000000000000000000000000000000000000000000000000000000000000000000000000000000000000000000000000000000000000000000000000000000000000000000000000000000000000000000000000000000000000000000000000000000000000000000000000000000000000000000000000000000000000000000000000000000000000000000000000000000000000000000000000000000000000000000000000000000000000000000000000000000000000000000000000000000000000000000000000000000000000000000000000000000000000000000000000000000000000000000000000000000000000000000000000000000000000000000000000000000000000000000000000000000000000000000000000000000000000000000000000000000000000000000000000000000000000000000000000000000000000000000000000000000000000000000000000000000000000000000000000000000000000000000000000000000000000000000000000000000000000000000000000000000000000000000000000000000000000000000000000000000000000000000000000000000000000000000000000000000000000000000000000000000000000000000000000000000000000000000000000000000000000000000000000000000000000000000000000000000000000000000000000000000000000000000000000000000000000000000000000000000000000000000000000000000000000000000000000000000000000000000000000000000000000000000000000000000000000000000000000000000000000000000000000000000000000000000000000000000000000000000000000000000000000000000000000000000000000000000000000000000000000000000000000000000000000000000000000000000000000000000000000000000000000000000000000000000000000000000000000000000000000000000000000000000000000000000000000000000000000000000000000000000000000000000000000000000000000000000000000000000000000000000000000000000000000000000000000000000000000000000000000000000000000000000000000000000000000000000000000000000000000000000000000000000000000000000000000000000000000000140000000000000000000000000000000000000000000000000000000000000000000000000000000000000000000000000000000000000000000000000000000000000000000000000000000000000000000000000000000000000000000000000000000000000000000000000000000000000000000054240000000000000000000000000000000000000000000000000000000000000000000000000000000000000000000000000000000000000000000000000000000000000000000000000000000000000000000000000000000000000000000000000000000000000000000000000000000000000000000000000000000000000000000000000000000000000000000000000000000000000000000000000000000000000000000000000000000000000000000000000000000000000000000000000000000000000000000000000000000000000000000000000000000000000000000000000000000000000000000000000000000000000000000000000000000000000000000000000000000000000000000000000000000000000000000000000000000000000000000000000000000000000000000000000000000000000000000000000000000000000000000000000000000000000000000000000000000000000000000000000000000000000000000000000000000000000000000000000000000000000000000000000000000000000000000000000000000000000000000000000000000000000000000000000000000000000000000000000000000000000000000000000000000000000000000000000000000000000000000000
#026951:000000000000000000000000000000000000000000000000000000000000000000000000000000000000000000000000000000000000000000000000000000000000000000000000000000000000000000000000000000000000000000000000000000000000000000000000000000000000000000000000000000000000000000000000000000000000000000000000000000000000000000000000000000000000000000000000000000000000000000000000000000000000000000000000000000000000000000000000000000000000000000000000000000000000000000000000000000000000000000000000000000000000000000000000000000000000000000000000000000000000000000000000000000000000000000000000000000000000000000000000000000000000000000000000000000000000000000000000000000000000000000000000000000000000000000000000000000000000000000000000000000000000000000000000000000000000000000000000000000000000000000000000000000000000000000000000000000000000000000000000000000000000000000000000000000000000000000000000000000000000000000000000000000000000000000000000000000000000000000000000140000000000000000000000000000000000000000000000000000000000000000000000000000000000000000000000000000000000000000000000000000000000000000000000000000000000000000000000000000000000000000000000000000000000000000000000000000000000000000000054240000000000000000000000000000000000000000000000000000000000000000000000000000000000000000000000000000000000000000000000000000000000000000000000000000000000000000000000000000000000000000000000000000000000000000000000000000000000000000000000000000000000000000000000000000000000000000000000000000000000000000000000000000000000000000000000000000000000000000000000000000000000000000000000000000000000000000000000000000000000000000000000000000000000000000000000000000000000000000000000000000000000000000000000000000000000000000000000000000000000000000000000000000000000000000000000000000000000000000000000000000000000000000000000000000000000000000000000000000000000000000000000000000000000000000000000000000000000000000000000000000000000000000000000000000000000000000000000000000000000000000000000000000000000000000000000000000000000000000000000000000000000000000000000000000000000000000000000000000000000000000000000000000000000000000000000000000000000000000000000000000000000000000000000000000000000000000000000000000000000000000000000000000000000000000000000000000000000000000000000000000000000000000000000000000000000000000000000000000000000000000000000000000000000000000000000000000000000000000000000000000000000000000000000000000000000000000000000000000000000000000000000000000000000000000000000000000000000000000000000000000000000000000000000000000000000000000000000000000000000000000000000000000000000000000000000000000000000000000000000000000000000000000000000000000000000000000000000000000000000000000000000000000000000000000000000000000000000000000000000000000000000000000000000000000000000000000000000000000000000000000000000000000000000000000000000000000000000000000000000000000000000000000000000000000000000000000000000000000000000000000000000000000000000000000000000000000000000000000000000000000000000000000000000000000000000000000000000000000000000000000000000000000000000000000000000000000000000000000000000000000000000000000000000000000000000000000000000000000000000000000000000000000000000000000000000000000000000000000000000000000000000000000000000000000000000000000000000000000000000000000000000000000000000000000000000000000000000000000000000000000000000000000000000000000000000000000000000000000000000000000000000000000000000000000000000000000000000000000000000000000000000000000000000000000000000000000000000000000000000000000000000000000000000000000000000000000000000000000000000000000000000000000000000000000000000000000000000000000000000000000000000000000000000000000000000000000000000000000000000000000000000000000000000000000000000000000000000000000000000000000000000000000000000000000000000000000000000000000000000
#0269a0:000000000000000000000000000000000000000000000000000000000000000000000000000000000000000000000000000000000000000000000000000000000000000000000000000000000000000000000000000000000000000000000000000000000000000000000000000000000000000000000000000000000000000000000000000000000000000000000000000000000000000000000000000000000000000000000000000000000000000000000000000000000000000000000000000000000000000000000000000000000000000000000000000000000000000000000000000000000000000000000000000000000000000000000000000000000000000000000000000000000000000000000000000000000000000000000000000000000000000000000000000000000000000000000000000000000000000000000000000000000000000000000000000000000000000000000000000000000000000000000000000000000000000000000000000000000000000000000000000000000000000000000000000000000000000000000000000000000000000000000000000000000000000000000000000000000000000000000000000000000000000000000000000000000000000000000000000000000000000000000000140000000000000000000000000000000000000000000000000000000000000000000000000000000000000000000000000000000000000000000000000000000000000000000000000000000000000000000000000000000000000000000000000000000000000000000000000000000000000000000054240000000000000000000000000000000000000000000000000000000000000000000000000000000000000000000000000000000000000000000000000000000000000000000000000000000000000000000000000000000000000000000000000000000000000000000000000000000000000000000000000000000000000000000000000000000000000000000000000000000000000000000000000000000000000000000000000000000000000000000000000000000000000000000000000000000000000000000000000000000000000000000000000000000000000000000000000000000000000000000000000000000000000000000000000000000000000000000000000000000000000000000000000000000000000000000000000000000000000000000000000000000000000000000000000000000000000000000000000000000000000000000000000000000000000000000000000000000000000000000000000000000000000000000000000000000000000000000000000000000000000000000000000000000000000000000000000000000000000000000000000000000000000000000000000000000000000000000000000000000000000000000000000000000000000000000000000000000000000000000000000000000000000000000000000000000000000000000000000000000000000000000000000000000000000000000000000000000000000000000000000000000000000000000000000000000000000000000000000000000000000000000000000000000000000000000000000000000000000000000000000000000000000000000000000000000000000000000000000000000000000000000000000000000000000000000000000000000000000000000000000000000000000000000000000000000000000000000000000000000000000000000000000000000000000000000000000000000000000000000000000000000000000000000000000000000000000000000000000000000000000000000000000000000000000000000000000000000000000000000000000000000000000000000000000000000000000000000000000000000000000000000000000000000000000000000000000000000000000000000000000000000000000000000000000000000000000000000000000000000000000000000000000000000000000000000000000000000000000000000000000000000000000000000000000000000000000000000000000000000000000000000000000000000000000000000000000000000000000000000000000000000000000000000000000000000000000000000000000000000000000000000000000000000000000000000000000000000000000000000000000000000000000000000000000000000000000000000000000000000000000000000000000000000000000000000000000000000000000000000000000000000000000000000000000000000000000000000000000000000000000000000000000000000000000000000000000000000000000000000000000000000000000000000000000000000000000000000000000000000000000000000000000000000000000000000000000000000000000000000000000000000000000000000000000000000000000000000000000000000000000000000000000000000000000000000000000000000000000000000000000000000000000000000000000000000000000000000000000000000000000000000000000000000000000000000000000000000000000000000000
#044980:00000000000000000000140000540000
#0449a0:000000000000000000000000000000000000000000000000000000000000000000000000000000000000000000000000000000000000000000000000000000000000000000000000000000000000000000000000000000000000000000000000000000000000000000000000000000000000000000000000000000000000000000000000000000000000000000000000000000000000000000000000000000000000000000000000000000000000000000000000000000000000000000000000000000000000000000000000000000000000000000000000000000000000000000000000000000000000000000000000000000000000000000000000000000000000000000000000000000000000000000000000000000000000000000000000000000000000000000000000000000000000000000000000000000000000000000000000000000000000000000000000000000000000000000000000000000000000000000000000000000000000000000000000000000000000000000000000000000000000000000000000000000000000000000000000000000000000000000000000000000000000000000000000000000000000000000000000000000000000000000000000000000000000000000000000000000000000000000000000000000000000000000000000000000000000000000000000000000000000000000000000000000000000000000000000000000000000000000000000000000000000000000000000000000000000000000000000000000000000000000000000000000000000000000000000000000000000000000000000000000000000000000000000000000000000000000000000000000000000000000000000000000000000000000000000000000000000000000000000000000000000000000000000000000000000000000000000000000000000000000000000000000000000000000000000000000000000000000000000000000000000000000000000000000000000000000000000000000000000000000000000000000000000000000000000000000000000000000000000000000000000000000000000000000000000000000000000000000000000000000000000000000000000000000000000000000000000000000000000000000000000000000000000000000000000000000000000000000000000000000000000000000000000000000000000000000000000000000000000000000000000000000000000000000000000000000000000000000000000000000000000000000000000000000000000000000000000000000000000000000000000000000000000000000000000000000000000000000000000000000000000000000000000000000000000000000000000000000000000000000000000000000000000000000000000000000000000000000000000000000000000000000000000000000000000000000000000000000000000000000000000000000000000000000000000000000000000000000000000000000000000000000000000000000000000000000000000000000000000000000000000000000000000000000000000000000000000000000000000000000000000000000000000000000000000000000000000000000000000000000000000000000000000000000000000000000000000000000000000000000000000000000000000000000000000000000000000000000000000000000000000000000000000000000000000000000000000000000000000000000000000000000000000000000000000000000000000000000000000000000000000000000000000000000000000000000000000000000000000000000000000000000000000000000000000000000000000000000000000540000000000000000000000000000000000000000000000000000000000000000000000000000000000000000000000000000000000000000000000000000000000000000000000000000000000000000000000000000000000000000000000000000000000000000000000000000000000000000000000000000000000000000000000000000000000000000000000000000000000000000000000000000000000000000000000000000000000000000000000000000000000000000000000000000000000000000000000000000000000000000000000000000000000000000000000000000000000000000000000000000000000000000000000000000000000000000000000000000000000000000000000000000000000000000000000000000000000000000000000000000000000000000000000000000000000000000000000000000000000000000000000000000000000000000000000000000000000000000000000000000000000000000000000000000000000000000000000000000000000000000000000000000000000000000000000000000000000000000000000000000000000000000000000000000000000000000000000000000000000000000000000000000000000000000000000000000000000000000000000000000000000000000000000000000000000000000000000000000000000000000000000000000000000000000000000000000000000005454545454
#044960:0000000000000000000000000000000000000000000000000000000000540000
#0459a0:24
