This file was generated by Ched 2.7.0.0.
#TITLE ""
#ARTIST ""
#DESIGNER ""
#DIFFICULTY 0
#PLAYLEVEL
#SONGID ""
#WAVE ""
#WAVEOFFSET 0
#JACKET ""
#REQUEST "ticks_per_beat 480"
#00002: 4
#BPM01: 128
#00008: 01
#TIL00: ""
#VOLUME: ""
#HISPEED 00
#MEASUREHS 00
#00912:14
#0091a:0014
#0051a:1414
#00612:1414
#0111a:14
#01112:0014
#01312:1414
#01014:1414
#01018:00140000
#01218:1414
#01214:00140000
#0141a:1414
#01410:00410000
#01514:14
#01518:0014
#01714:00140000
#01718:0014
#01712:00000014
#0171a:24
#01912:14
#01918:00140000
#01914:0014
#0191a:00000014
#0271a:00140000
#0271f:11
#02718:24
#02812:00140000
#02814:24
#0291a:14
#02914:00140000
#02918:0014
#02912:00000014
#0301a:14
#03014:00140000
#03018:0014
#03012:00000014
#03218:00001414
#03214:0000000000140000
#0331a:00140000
#03314:0014
#03318:00000014
#03312:26
#0331f:21
#03310:0041
#03412:14
#0341a:00140000
#03414:00001414
#03418:0000000000140000
#03512:00140000
#03518:2614
#03514:00000014
#0361a:14
#03612:00140000
#03618:0014
#03614:00000014
#03912:14
#03918:00140000
#03914:0014
#0391a:00000014
#0411a:00241414
#04212:14141400
#04218:00000024
#04418:0014
#04414:00000014
#04412:00240000
#0451a:14
#04512:00241414
#0461a:14141400
#04614:00000024
#00818:24
#00810:00000041
#0071a:24
#00712:0024
#0251a:24
#02612:24
#0381a:00000024
#04012:24
#04014:00000000340000340000000000000000
#04314:00240000
#04318:00000024
#04310:41
#0481a:00240000
#04812:00240000
#04718:00240000
#04714:00000024
#03118:24
#02012:24
#02010:41
#01612:24
#00310:41
#00858:00140000
#02455:0014
#02758:64
#0275a:00240000
#02852:00240000
#02854:54
#03854:0014
#04052:64
#04154:14
#04358:14
#04354:0014
#04458:14
#04754:14
#04758:0014
#04854:14
#0315a:0000000000000014
#01652:14
#001380:14
#0023a0:3424
#003340:14
#004320:3424
#008380:14240000
#0183a0:1424
#020320:1424
#0213a0:1434
#022370:3424
#023320:1434
#024350:3424
#0253a0:1424
#026320:1424
#027380:1424
#0273a0:00540000
#028340:1424
#028320:00540000
#031380:14
#0313a0:00000000000000003400003400002400
#0373a0:14
#037390:00340000
#037380:0034
#037370:00000024
#038320:14
#038330:00340000
#038340:0024
#040320:14
#040340:00000000340000340000000034000000
#041340:24
#042380:00000014
#043380:24
#043340:00142400
#043380:00000014
#044380:24
#046340:00000014
#047340:24
#047380:00142400
#047340:00000014
#048340:24
#0483a0:00143424
#048321:00143424
