This file was generated by Ched 2.7.0.0.
#TITLE ""
#ARTIST ""
#DESIGNER ""
#DIFFICULTY 0
#PLAYLEVEL
#SONGID ""
#WAVE ""
#WAVEOFFSET 0
#JACKET ""
#REQUEST "ticks_per_beat 480"
#00002: 4
#BPM01: 196
#00008: 01
#TIL00: ""
#VOLUME: ""
#HISPEED 00
#MEASUREHS 00
#0021b:0013000000000013
#00218:0013
#00215:00130000
#00212:23
#00213:00000000003300000000000000000000
#00210:41
#0031a:0014
#00316:0000000000140000
#00315:0013001300000000
#00318:00130000
#00314:005300000000
#00313:000000000053000000000000000000000000000000000000
#00312:00530000
#00412:0013000013000000
#00418:0000131300130000
#00415:00000000001300000000000013000000
#0041b:23
#00512:00000000000000000013000000000000
#00513:00000000000000000000001300000000
#00517:0013
#00518:0000000000130000
#00519:00000013
#0051a:0000000000000013
#00514:00000000000000000000000000130000
#00515:00000000000000000000000000000013
#01018:0000001300001300
#01015:0000130000000013
#0101a:23
#0111b:13
#01118:0013000000130013
#01115:00130013
#01112:0000001300000000
#01315:0000130000000023
#01312:13000013
#0131b:0013000000001300
#01318:0000002300000000
#0141b:00131300
#01418:13000013
#01415:0000000000130013
#01410:41
#0151b:13
#01518:0013001300001300
#01515:0000130013000013
#01512:13
#01612:13130000
#0161b:00001313
#01618:0000000000000013
#01616:0013
#01617:13
#01715:1313
#01718:00001300000000000013000000000000
#01712:0000130000000013
#0171b:0000001300000000
#01918:0000001300000013
#0191b:0013000000130000
#01915:00000013
#01912:0013000000000000
#02012:1313000000000013
#02018:0000131300000000
#02015:0000000013130000
#0201b:0000000000001313
#02115:0013000000130013
#02118:0013000000000000
#0211b:0000001300000000
#02112:0000001300000000
#02215:0000131313000000
#02217:0000000000001313
#02218:13
#02316:0013131300000000
#02318:0000000000130000
#02315:00000013
#0231b:0000000013000013
#02312:0000000000000013
#02418:0000260026000016
#02412:0026260000001600
#0241f:0000000000000011
#02410:41
#02517:0014
#02515:0014000000000000
#0251a:0014000000000000
#02519:00140013
#02518:0000001400000000
#02514:00140013
#02513:0000001400000000
#02512:0014
#03312:2400250026000014
#0331a:24
#03318:0026
#03319:00250000
#03515:0000000000000013
#03516:00130000
#0351a:0014
#0351b:0013000000000000
#03512:0014
#03712:0000000000130013
#03717:00000013
#03714:24
#03716:0024000000000000
#03718:00240000
#0371a:0000002400000000
#03815:00130000
#03817:1300001300000000
#03812:0013
#0381a:0000000000240000
#03816:00000024
#0391b:0013000013000013
#03918:00130013
#03915:0000001300130000
#03912:0013
#04318:0015000000150000
#04312:1300000000000013
#04313:0000001500000000
#04317:0000000000000013
#0461b:0000001300000000
#04612:1300000000130013
#04617:00000013
#04615:0013000000000000
#04618:00130000
#0471b:13
#04715:13
#04713:0023002300230023
#04719:0023000000000000
#0541b:0013000013000000
#05412:0013
#05415:0000001300001300
#05418:00130000
#06019:0000001300000013
#06012:24142414
#03015:00000053000000000000130000000000
#0301a:00000000000053000000001300000000
#03013:00530000000000000000000000001300
#0301b:00000000000000530013000000000000
#03014:0053000000001300
#03019:00000000005300000000000000130000
#03018:00000000130000000000000000000013
#03012:13
#03016:0023
#0321a:00141400
#03212:14000014
#03615:00130000
#03612:1300001300000024
#0361b:1300001300000000
#03618:0013000000130000
#00118:0012121212000000
#00119:00000025
#00112:00000025
#00018:0000000012120000
#0001a:1212000000000000
#00612:0013000000000013
#00615:0013
#00618:00130000
#0061b:13
#0061a:00000000003300000000000000000000
#00712:0014
#00716:0000000000140000
#0071b:0013000000000000
#00715:00130000
#00718:0000531300000000
#0071a:005300000000
#00719:000000000053000000000000000000000000000000000000
#00812:0013000000000000
#00815:0000130000130000
#00818:00000013
#00915:0013001300000000
#0091b:00130000
#00912:0000000000000013
#00916:00000024
#01215:0000001300001300
#01218:0000130000000013
#01813:00140000
#01812:0014
#01814:14
#01815:0000000000001313
#01818:2400000000000013
#01819:00240000
#0181a:0024
#02616:0014
#0261a:14
#02612:0024
#02716:0014
#02712:14
#0271a:0024
#02816:0014
#0281a:14
#02812:0024
#02916:00140014
#02912:14
#0291a:0014
#03112:13
#03117:00000000000000000000000000000014
#03118:00000000130000000000000000140000
#03114:0053000000001400
#0311a:00000000000053000014000000000000
#03113:00530000000000000000000000001400
#03119:00000000005300000000001400000000
#03115:00000053000000000000140000000000
#03116:0024
#0311b:00000000000000530000000000000000
#03418:0000000000130000
#0341a:14
#03416:0014001400000000
#03412:0000140000000013
#0341b:0013
#03415:00000013
#0341f:21
#03410:0041
#04014:00130000
#04019:0000000000130000
#04012:14000014
#0401a:0000001400000000
#04016:2400002400002400
#04112:0000000000140000
#04118:00000014
#04114:0000000000000014
#04116:0014000014000000
#04412:0013
#04417:0013
#04416:00130000
#0451a:14
#04519:00140000
#04518:0014
#04516:24
#04515:00640000000000000000000000000000240000000000000000000000000000000000000000000000000000000000000000000000000000000000000000000000
#04514:00006400000000000000000000000000006400000000000000000000000000002400000000000000000000000000000000000000000000000000000000000000
#04513:00000000000000000000000000000000000064000000000000000000000000000064000000000000000000000000000000000000000000000000000000000000
#04512:0000000000000000000000000000000000640000000000000000000000000000
#04914:0014000000000014
#0491a:0000000000140000
#04917:00000014
#04816:00000000000000150000000000000000
#04812:25
#05015:00130013
#05012:2300002300130000
#05018:2600002600000013
#05010:41
#05118:0000130000131313
#05115:00000000000000000000001300130013
#05112:2600002600000000
#0511b:2300002300000000
#05312:1300000053000027
#0531b:0000000013000053
#05313:00530000000000530000000000000000
#05314:0053005300000000
#05315:00000053005300000000000000000000
#05316:00530000
#0531a:00000000000000000053000000530000
#05319:0000000000535300
#05318:00000000000000000000005300000000
#05612:0013000013000000
#0561b:0013
#05618:0000001300001300
#05615:00130000
#05816:0000001313000000
#05817:0013000000000000
#0581b:00000013
#05912:13
#05915:0013001300000000
#05918:00130000
#06215:0013000000000000
#0621b:0000001300000000
#06212:00130000
#06216:0013
#06218:00130000
#06217:00000013
#06814:0000001300000013
#0681a:24242424
#06417:0013
#06416:00000013
#06414:0000000000130000
#06419:0000000000000013
#06418:0013000000000000
#06412:0000001300000000
#0641b:00130000
#06415:00130000
#06612:0000001424000000
#06616:0014002414002400
#0661a:0024000000000000
#0671b:13
#06715:00130000
#06718:0023002300000000
#06316:0024000000140000
#06312:2400002400000000
#0631a:00240000
#06516:0024000000140014
#0651a:2400002400000000
#06512:00240000
#06510:0000000000000041
#06915:0000001300000000
#06918:0000001300000000
#06912:24240000
#0691a:24240000
#07012:0013000000000013
#07015:0013
#07018:00130000
#0701a:24000000003300000000000000000000
#07112:0014
#07116:0000000000140000
#0711b:0013000000000000
#07115:00130000
#07118:0000531300000000
#0711a:005300000000
#07119:000000000053000000000000000000000000000000000000
#0721b:0013000013000000
#07215:0000131300130000
#07218:00000000001300000000000013000000
#07212:23
#0731b:00000000000000000013000000000000
#0731a:00000000000000000000001300000000
#07316:0013
#07315:0000000000130000
#07314:00000013
#07313:0000000000000013
#07319:00000000000000000000000000130000
#07318:00000000000000000000000000000013
#0741b:0013000000000013
#07418:0013
#07415:00130000
#07412:13
#07413:00000000003300000000000000000000
#0751a:0014
#07516:0000000000140000
#07515:0013001300000000
#07518:00130000
#07514:005300000000
#07513:000000000053000000000000000000000000000000000000
#07512:00530000
#07618:0014000000131300
#07616:00140000
#07615:00000000000000000000001300000000
#0761a:14
#07612:0014
#07614:0000001400000000
#04218:26
#04216:00002424
#04212:00260024
#0421a:0024
#05218:23
#05212:0000232300002300
#05518:24
#05515:0024000000000000
#05512:00240000
#05516:0000002400000000
#05714:24
#05717:0024000000000000
#0571a:00240000
#05716:0000002400000000
#0611a:0000000000000024
#06112:0024
#0611b:23
#07716:00005252520000000000000000720000
#07718:00000000000052525200000000000000
#02155:0000000000130000
#02158:0063000000130000
#0215b:0000006300000000
#02458:0000160000000016
#02452:0016
#02557:0014
#02552:0014
#03256:00140014
#0325a:00145400
#03252:64000014
#03352:0016
#03358:0016
#04258:16
#04256:00001414
#04252:00160014
#0425a:0014
#00152:00000015
#00159:00000015
#0025b:0000000000000013
#00255:00530000
#00652:0000000000000013
#00658:00630000
#0065b:13
#00955:0053005300000000
#0095b:00530000
#00956:00000014
#01152:0000001300000000
#01555:0053
#0165b:00130000
#01652:00000013
#01657:53
#01656:0053
#01752:00530000
#0175b:0000005300000000
#01755:0023
#01758:00000000000000000023000000000000
#01952:0063000000000000
#01958:0000001300000000
#01955:0000001300000000
#0205b:0000000000000063
#01855:0000000000000063
#01858:14
#01859:00140000
#0185a:0014
#02258:63
#02255:0053
#02257:0000000000000063
#02656:0024
#0265a:54
#02652:0034
#02756:0024
#02752:64
#0275a:0044
#02856:0024
#0285a:54
#02852:0034
#02956:00240024
#02952:6434
#0295a:4454
#0345a:64
#03456:0024002400000000
#03452:0000540000000053
#03552:0014
#0355a:0014
#0375a:0000001400000000
#03652:0000005300000000
#03658:0000000000530000
#03856:00000054
#03857:53
#0385a:00000014
#04056:00000014
#04052:00000054
#04156:0024000000000000
#04353:0000003500000000
#04358:0045000000450000
#04352:0000000000000053
#04357:0000000000000053
#04452:0063
#0445b:00130013
#04456:00630013
#04457:0063
#04558:0054
#04556:00000014
#0465b:0000005300000000
#04857:17
#04852:55
#04856:00000000000000250000000000000000
#05058:4600004600000000
#05152:3600003600000000
#05352:0000000000000017
#0545b:0053
#05455:00000053
#05556:0000006400000000
#0555a:0000000000000014
#05652:0063
#05658:00000063
#05756:0000005400000000
#05752:0000000000000014
#05856:0053
#05857:0053000000000000
#0585b:00000053
#0595b:00000013
#05952:00000013
#05955:0000005300000000
#05958:00630000
#06256:0063
#06257:00000063
#06457:0053
#06456:00000053
#06656:00006454
#06755:00530000
#06752:00000013
#0675b:00000013
#06758:0000005300000000
#0615a:0000000000000014
#0615b:53
#06152:0054
#06156:00000014
#06157:00130000
#06352:0000005400000014
#06356:0000000000240000
#06556:0000000000240014
#0655a:0000006400000014
#06955:0000002300000000
#06958:0000002346000000
#06952:34543600
#0695a:44640000
#0705a:44
#07052:0000000000000013
#07058:00630000
#0745b:0000000000000013
#07455:00530000
#07452:13
#000360:0000000000000012
#001360:0022
#002350:00130000
#002330:00000000003300000000000000000000
#002320:0000003323000000
#002350:0000000000130023
#003320:00000014
#004320:24
#0043b0:0000000000000013
#0053b0:0023000000000000
#005351:0013230000000000
#005380:0000132300000000
#005321:0000001323000000
#006381:00130000
#0063a1:00000000003300000000000000000000
#0063b1:0000003323000000
#006381:0000000000130023
#0073a1:00000014
#0083a1:24
#008381:0000001300230000
#0083b1:0000000000000013
#0093b1:0023000000000000
#009350:0013000000000000
#009320:00230000
#0093b1:00130000
#009381:0000002300000000
#009350:0000001300000000
#009320:0023
#009361:00001424
#0103a1:13
#010391:00250000
#010321:0015
#010331:00000023
#012321:14240000
#0123a1:00001424
#013381:0000001300000000
#013371:0000000000250000
#014351:0013000023000000
#015351:0013
#015321:00000023
#016371:13
#0163b1:00230000
#016361:0013
#016321:00000023
#017321:00130023
#017351:0053
#0173b0:0000001300002300
#017380:00000000000000000053000000000000
#018350:0000000000000013
#019320:0033000000000000
#019350:0000002300000000
#0203b0:0000000000000013
#021380:0033000000230000
#0213b0:0000003300000000
#022380:13
#0223b0:00532300
#022351:0013
#022321:0000000000005323
#022370:0000000000000013
#0233b0:0053002300000000
#024320:00162600
#024381:00001626
#0263a1:14
#026361:0054
#0273a1:24
#027320:14
#027360:0054
#028320:24
#0283a1:14
#028361:0054
#0293a1:24
#029320:1424
#029360:00540000
#0293a1:0014
#029361:00000054
#0303a1:24
#032321:14
#032361:00240000
#0323a1:0014
#032361:00000024
#0343a1:14240000
#034361:0054000000000000
#034320:00142400
#034360:0000005400000000
#034320:0000000000000013
#035360:0023000000000000
#036320:0000001300000000
#036350:0000000000230000
#036381:0000000000130000
#0363b1:0000000000000023
#038371:13
#0383b1:00230000
#0383a1:00000000000000000000143424000000
#038360:00000014
#039320:0024000000000000
#040320:00000014
#041360:0054000000000000
#041320:0024
#043370:0000000000000013
#0443b0:00230000
#043321:0000000000000013
#044361:00330023
#044321:0033
#044370:0013
#0443b0:00000023
#045380:0014
#045360:00000024
#0463b0:0000001300000000
#046370:0000000000230000
#047390:0013000000000000
#048370:27
#048321:1500000000000025
#048361:00000000000000550000000000000000
#0483a0:000000000000000000000000000000000000000000145454
#048390:000000000000000000000000000000000000000000000000000000000000000000000000000000000000005400540054
#0493a0:545454545454545454240000000000000000000000000000
#049390:005400540054005400540054005400540054000000000000000000000000000000000000000000000000000000000000
#049361:000000000000000000145454545454240000000000000000
#049351:000000000000000000000000000000000000005400540054005400540054000000000000000000000000000000000000
#052381:13
#053351:29
#0543b1:0013
#054381:00000023
#054350:00000013
#055320:23
#055360:0000001400000000
#0553a0:0000000000000024
#056320:0013
#056350:00000023
#056381:00000013
#0573b1:23
#057361:0000001400000000
#057321:0000000000000024
#058371:0013000000000000
#0583b1:0023
#058360:0013
#058320:00000023
#0583b1:00000013
#059371:23
#059381:00130000
#0593b1:00000023
#059350:0000001300000000
#059320:00000023
#0603b0:13230000
#060370:00001323
#0613b0:13
#061370:00230000
#061321:14240000
#061321:0014
#061361:00000024
#0613a0:00001424
#062360:0013
#062320:00000023
#062371:00000013
#0633b1:23
#063321:0000001400000024
#063361:0000000000540000
#064371:0013
#0643b1:00000023
#064360:00000013
#065320:23
#0653a0:0000001400000024
#065360:0000000000540000
#066360:0014
#0663a0:00000024
#066361:00000014
#067321:24
#067351:00130000
#067321:00000023
#067380:0000001300000000
#0673b0:00000023
#068320:13230000
#068360:00001323
#069320:00142600
#069350:0000005300000000
#0693a1:00140000
#069381:0000005326000000
#0693a1:00000014
#069381:00000000000000000000000000340034
#069361:0000000000000034
#0703a1:24
#070381:00130000
#0703a1:00000000003300000000000000000000
#0703b1:0000003323000000
#070381:0000000000130023
#0713a1:00000014
#0723a1:24
#072321:0000000000000013
#073321:0023000000000000
#073380:0013230000000000
#073351:0000132300000000
#0733b0:0000001323000000
#074350:00130000
#074330:00000000003300000000000000000000
#074320:0000003323000000
#074350:0000000000130023
#075320:00000014
#076320:24
#076360:0000000000000012
#077360:0022000000000000
#077380:0000122200000000
#077360:00000000000000001200000000220000
#003950:0013000000000000
#003920:00230000
#0079b0:0013000000000000
#007980:00230000
#030920:13
#030950:00000023000000000000000000000000
#030980:00130000
#0309b0:00000000000000230000000000000000
#031920:13
#031950:00000023000000000000000000000000
#031980:00130000
#0319b0:00000000000000230000000000000000
#053920:1323
#053960:00530000
#0539b1:0000000013000023
#053981:00000000000000000000005300000000
#0719b1:0013000000000000
#071981:00230000
#075951:0013000000000000
#075921:00230000
#077961:0012220000000000
#077981:0000001222000000
