This file was generated by Ched 2.7.0.0.
#TITLE ""
#ARTIST ""
#DESIGNER ""
#DIFFICULTY 0
#PLAYLEVEL
#SONGID ""
#WAVE ""
#WAVEOFFSET 0
#JACKET ""
#REQUEST "ticks_per_beat 480"
#00002: 4
#BPM01: 196
#00008: 01
#TIL00: ""
#VOLUME: ""
#HISPEED 00
#MEASUREHS 00
#00215:0013000000000000
#00212:0000001300130000
#0021b:23130000
#00218:0013
#00210:41
#0031b:0013
#00315:0000000000130000
#00318:000000000054000000000000000000000000130000000000
#00312:0000001300000000
#0031a:0014000000000000
#00319:005400000000
#00317:00540000
#00415:00130000
#0041a:0000001400000014
#00412:2300000000140000
#00418:0013000000000000
#01018:0000001300000000
#0101b:0000000000000013
#01115:13130000
#01112:0000000000130013
#01118:00000013
#0111b:0013001300000000
#01318:1300130000000023
#01312:0013001300000000
#0141b:0013000000130000
#01415:13000013
#01418:0000000000000013
#01412:00131300
#01410:41
#01512:1313
#01518:0000000000000013
#0151b:0013000000000000
#01616:00130000
#01617:0013
#01615:0000000000000013
#01612:1313
#0161b:00230023
#01712:0000001300000000
#01715:00001300000000000013000000000000
#01718:1300000000000013
#0171b:00130000
#01912:0000000000130000
#01918:00000013
#01915:0000000000000013
#0191b:0013000000000000
#02118:0000000000000013
#02115:0013000000000000
#02112:0000001300000000
#02218:0000001300000013
#02215:13001313
#02315:00130013
#02318:0000001300000013
#0231b:0000000000130000
#02312:0013
#02418:00260014
#0241f:0000000000000011
#02412:0026000026000000
#02410:41
#03312:2400000025000014
#03319:0025
#03316:00240000
#03518:0000130000000013
#03515:0013
#03815:0000001300000000
#03818:1313
#03812:00000024
#0381a:00000024
#0391b:00130013
#03912:0000001300000014
#03915:0013000000130000
#03918:0013
#04615:00130013
#04618:0013000000000013
#04612:13
#0461b:0000001300000000
#04712:13
#04718:0024000000240000
#04714:0000002400000024
#00015:0000000012120000
#00019:1212000000000000
#00812:0014000000140000
#00816:00140014
#0081a:0000001400000000
#0091b:0000000000000013
#00914:00141400
#00918:0000001400000000
#00912:00000024
#01215:0000001300000000
#01212:0000000000000013
#02012:0000000000000013
#02018:00130000
#0201b:1313
#02019:0033000000330000
#0201a:0000003300000000
#01818:0000000000000013
#01815:00000013
#01812:24
#01816:00240000
#0181a:0024
#02617:0014
#0261a:14
#02612:0024
#02715:0014
#02712:14
#0271a:0024
#02817:0014
#0281a:14
#02812:0024
#03215:0013
#03212:13
#03218:0000001300000013
#03418:00000013
#03415:0000000000130013
#0341a:14
#03417:00140000
#0341f:21
#03410:0041
#03615:13
#03612:0000001300000000
#0361a:0000000000000024
#04013:00140000
#04014:0000000000140000
#04016:26
#04017:0000002600000000
#04018:00000026
#04115:00160000000000000000130000001300
#04118:00000013
#0431b:13
#04318:0000002400000013
#04314:0024000000240000
#04413:0013
#04416:00130000
#04418:0013
#0441b:00130000
#04516:13
#04514:00130000
#0451b:23
#04519:00230000
#04517:0023
#04815:00000000000000150000000000000000
#04819:25
#00512:00130000
#00518:0000001300000000
#00618:0013000000000000
#0061b:0000001300130000
#00612:00130000
#00615:0013
#00712:00541300
#00718:0000000000130000
#00715:0014000000001300
#0071b:0000001300000000
#00714:005400000000
#00713:000000000054000000000000000000000000000000000000
#02912:14
#03012:0023000000130000
#0301b:1323
#03018:00230000
#03015:0000002300000000
#0311b:0013000000000000
#03112:00000013
#03118:0000000000000013
#03119:0000003300000000
#0311a:00330000
#03712:0000240000130000
#0371b:00000013
#03715:0000000000000013
#03714:24
#03718:0024000000000000
#03716:0000002400000000
#0541b:0013000000000000
#05415:0000001300000000
#05418:0013
#06018:0000000013000013
#06015:1300001300000000
#05612:0013000000000000
#05615:0013
#05618:0000001300000000
#05918:0014000000000013
#05914:14
#05912:00140000
#0591a:0000001400000000
#05915:00000013
#0621a:0014001400140014
#06215:1414
#06212:00230023
#06315:14000000000000000053000000000000
#06316:0013
#0631a:00001400000014000000000000530000
#0631b:00000013
#06312:00230053
#06314:0000000000530000
#06319:0000000000000053
#06313:00000000000000000000005300000000
#06318:00000000000000000000000000000053
#06412:0014001400140014
#06417:5314
#0641b:00230023
#06512:0014001400001300
#06517:1413
#0651b:00230053
#06510:0000000000000041
#06518:00000000000000000053000000000000
#06519:0000000000530000
#06513:00000000000000000000000000530000
#06514:0000000000000053
#0651a:00000000000000000000005300000000
#06515:00000000000000000000000000000053
#0661a:0014001400140014
#06615:0014
#06612:00230023
#06616:53
#0671a:0014001400140000
#06715:1414
#06712:00230014
#06814:0014000000000014
#06812:0000001400140000
#0681a:24
#06818:00240024
#06817:0024
#05517:0000000000140000
#05514:00240000
#05518:0024000000000000
#0551a:0000002400000000
#05512:24
#05715:0000000000140000
#05718:00240000
#05714:0024000000000000
#05712:0000002400000000
#0571a:24
#0581b:0013000000000000
#05818:0013
#05815:0000001300000000
#07018:0013000000000000
#0701b:0000001300130000
#07012:23130000
#07015:0013
#07112:00541300
#07118:0000000000130000
#07115:0014000000001300
#0711b:0000001300000000
#07114:005400000000
#07113:000000000054000000000000000000000000000000000000
#07218:00130000
#07212:0000001400000014
#0721a:0000000000140000
#07215:0013000000000000
#0721b:23
#0731b:00130000
#07315:0000001300000000
#07415:0013000000000000
#07412:0000001300130000
#0741b:00130000
#07418:0013
#0751b:0013
#07515:0000000000130000
#07518:000000000054000000000000000000000000130000000000
#07512:0000001300000000
#0751a:0014000000000000
#07519:005400000000
#07517:00540000
#05312:1c3c3c3c3c3c3c3c3c3c3c3c3c000000
#05316:00000000000000000000000000340000
#02514:0014000000000000
#02518:0014000000000000
#02512:00340000
#0251a:00340000
#0691a:24140000
#06912:00240000
#0761a:0014000000140000
#07616:00140014
#07612:0000001400000000
#04218:2325
#04214:00240000
#04212:00000026
#00112:00000026
#00119:0052
#05216:24
#06118:0024
#06114:24
#05012:24000024
#05018:0000002400000024
#05010:41
#05114:24000024
#0511a:0000002400000024
#07713:00000000000000330000000000000000
#07714:00000033000000000000000000000000
#07712:00000000000000000000000000720000
#02155:0053000000130000
#02152:0000005300000000
#03352:0015
#03359:0015
#04258:1315
#04254:00140000
#04252:00000016
#00152:00000016
#00252:0000000000630000
#00255:0000000000000013
#00952:00000014
#00954:0064
#0115b:0000001300000000
#01552:0053
#0155b:0063000000000000
#01752:0000005300000000
#01755:00000000000000000023000000000000
#0195b:0053000000000000
#01958:0000001300000000
#02052:0000000000000053
#02058:00630000
#0205b:6363
#01858:0000000000000053
#02255:53
#02258:0000000000000063
#02657:0024
#0265a:54
#02755:0024
#02752:64
#02857:0024
#0285a:54
#03255:0053
#03252:63
#03455:0000000000000053
#0345a:64
#03457:00640000
#03555:0013
#03756:0000001400000000
#03655:6300000000130000
#03652:0000006300000000
#03858:63
#0385a:00000014
#03852:00000014
#04358:0000000000000053
#04453:0063
#0445b:00630013
#04456:00630013
#04458:0063
#04859:6500000000000045
#04855:00000000000000250000000000000000
#06158:0064
#06156:00000018
#06152:00180000
#06154:64
#0045a:0000000000000054
#00652:14
#0065b:0000000000530000
#00658:0000000000000013
#01352:0000001300000000
#02458:00160000
#02452:0016
#0295a:14
#02952:64
#02956:0014
#03158:0013
#0315b:0063000000000000
#04155:00260000000000000000000000000000
#04058:00000066
#0465b:0000005300000000
#05655:0053
#0555a:0000005400000014
#05557:0000000000240000
#05458:0063
#0675a:0000000000140000
#06752:00000014
#05755:0000000000240000
#05752:0000006400000014
#05858:0063
#06055:63
#06058:0063
#0595a:0000001400000000
#06954:0014
#06958:0014
#0695a:00540000
#06952:00540000
#0705b:0000000000530000
#07058:0000000000000013
#07252:0000000000000064
#07452:0000000000630000
#0745a:14
#07455:0000000000000013
#05352:5c
#05356:0000000000000014
#02554:0054000000000000
#02558:0054000000000000
#0255a:0014
#02552:0014
#06457:13
#06656:13
#000390:0000000000000012
#001390:0032323222000000
#002320:0000000000130000
#002350:0000000000000023
#0043a0:0000000000000014
#005370:0024000000000000
#005320:0014
#005330:00000000000000000034000000000034
#005340:0000000000340034
#005350:00000000000000000000003400340000
#005360:00000034
#006320:24
#0063b0:0000000000130000
#006380:0000000000000023
#0083a0:0000000000000014
#0093a0:0024000000000000
#009340:0014
#009320:00000024
#010350:13230000
#010320:00001323
#012380:13230000
#0123b0:00001323
#0153b0:0013000000000000
#015380:0000002300000000
#015320:0013
#015350:00000023
#017320:0000001300002300
#017350:00000000000000000053000000000000
#018380:0000000000000013
#0193b0:0033000000000000
#019380:0000002300000000
#0203b0:1333
#020390:0033000000330000
#020380:00330023
#0203a0:0000003300000000
#020320:0000000000000013
#021350:0033000000230000
#021320:0000003300000000
#022350:13
#022320:00230000
#022380:0000000000000013
#0233b0:0023000000000000
#024340:0000000000000014
#025340:0034000000000000
#025320:0000343424000000
#025381:0014000000000000
#0253a1:0000343424000000
#0263a1:14
#026371:0054
#0273a1:24
#027320:14
#027350:0054
#028320:24
#0283a1:14
#028371:0054
#0293a1:24
#029320:14
#029360:0024
#0303b0:0000000000000013
#0313b0:0033000000000000
#0313a0:00330000
#031390:0000003300000000
#031380:0023
#032320:13
#032350:00230000
#032350:0013
#032320:00000023
#0343a0:1424
#034370:00340000
#034350:0000000000000013
#035320:0023000000000000
#036350:1300000000230000
#036320:0000333300000000
#038380:13
#0383b0:00230000
#040380:00000016
#041350:00560000000000000000000000000000
#041380:0000002600000000
#043380:0000000000000013
#0443b0:00330023
#044380:0033
#044361:00130023
#044331:0033
#045321:00001323
#045370:00001323
#0463b0:0000001300000000
#046380:0000000000230000
#048390:1500000000000025
#048350:00000000000000550000000000000000
#050320:14240000
#050380:0000001400240000
#051340:14240000
#0513a0:0000001400240000
#052360:14
#053320:3c3c3c3c3c3c3c3c3c3c3c3c3c000000
#053360:00000000000000000000000000342400
#054380:0013
#0543b0:00000023
#0553a0:0000001400000024
#055370:0000000000540000
#056350:0013
#056320:00000023
#057320:0000001400000024
#057350:0000000000540000
#058380:0013
#0583b0:00000023
#060350:13
#060320:00230000
#060380:0013
#0603b0:00000023
#061340:14
#061320:00280000
#061380:0014
#061360:00000028
#0693a0:14340000
#069380:0000005424000000
#069321:00140000
#069341:0000005424000000
#0703b1:0000000000130000
#070381:0000000000000023
#072321:0000000000000014
#073351:0024000000000000
#0733a1:0014
#073391:00000000000000000034000000000034
#073381:0000000000340034
#073371:00000000000000000000003400340000
#073361:00000034
#0743a1:24
#074321:0000000000130000
#074351:0000000000000023
#076321:0000000000000014
#077321:00003400000000003200000000220000
#077341:00000033000000000000000000000000
#077351:0000333300000000
#077331:00000000000000330000000000000000
#0039a0:0014000000000000
#003970:00240000
#007950:0014000000000000
#007920:00240000
#063960:0013
#063920:00000023
#0639b1:00000013
#064971:23
#065971:0013
#0659b1:00000023
#065920:00000013
#066960:23
#071950:0014000000000000
#071920:00240000
#0759a0:0014000000000000
#075970:00240000
