This file was generated by Ched 2.7.0.0.
#TITLE ""
#ARTIST ""
#DESIGNER ""
#DIFFICULTY 0
#PLAYLEVEL
#SONGID ""
#WAVE ""
#WAVEOFFSET 0
#JACKET ""
#REQUEST "ticks_per_beat 480"
#00002: 4
#BPM01: 181
#00008: 01
#TIL00: ""
#VOLUME: ""
#HISPEED 00
#MEASUREHS 00
#01114:14
#01218:14
#01312:14
#01918:14
#02014:14
#02010:41
#0211a:14
#02212:14
#02318:14
#02414:14
#0251a:14
#02612:14
#02712:14
#02818:14
#02918:14
#03014:14
#03010:41
#03114:14
#0321a:14
#0331a:14
#04218:0016
#04212:26
#04210:41
#04418:16
#04412:0016
#04612:16
#04618:0016
#04712:16
#04718:0016
#05218:14
#05312:14
#05614:14
#05714:14
#05818:14
#05918:14
#0641a:14
#06618:14
#06712:14
#07018:0016
#07012:26
#0701f:21
#07218:16
#07212:0016
#07914:14
#08018:14
#08112:14
#00212:0016
#00218:26
#00312:0016
#00318:26
#00612:0016
#00718:16
#00712:0016
#00912:0016
#0101a:14
#01010:41
#0141a:14
#01514:14
#01812:14
#05114:14
#0551a:14
#06314:14
#06514:14
#07412:16
#07418:0016
#07512:16
#07518:0016
#0611f:11
#0541a:24
#05410:41
#0621a:24
#0781a:24
#0821a:24
#0501a:24
#07110:41
#004380:1636
#005380:3636
#006380:26
#008380:16
#009380:26
#016380:14
#017380:24
#034320:14
#035320:24
#036380:14
#037380:24
#038340:14
#039340:24
#0403a0:14
#0413a0:24
#043320:1626
#045380:1626
#048320:16
#049320:26
#060320:14
#061320:24
#068380:14
#069380:24
#071320:1626
#073380:1626
#076320:16
#077320:26
#083340:14
#083320:0000000000000034
#084320:0024
