This file was generated by Ched 2.7.0.0.
#TITLE ""
#ARTIST ""
#DESIGNER ""
#DIFFICULTY 0
#PLAYLEVEL
#SONGID ""
#WAVE ""
#WAVEOFFSET 0
#JACKET ""
#REQUEST "ticks_per_beat 480"
#00002: 4
#BPM01: 181
#00008: 01
#TIL00: ""
#VOLUME: ""
#HISPEED 00
#MEASUREHS 00
#00013:0014
#00016:14
#00019:0014
#05612:0000000000000013
#0561b:13000000000000000053000000000000
#05618:0000005300000000
#05619:00000000000000530000000000000000
#0561a:0053
#00618:0013001300001300
#00615:0000130000130000
#00612:0013
#0061b:1300000013000013
#00818:131300000000
#00815:000000130013000000000000
#00812:001300000000000000140000
#0081b:001300
#00816:0000000000140014
#0081a:0014
#01118:0013000000000013
#01115:23132313
#01112:0000001300130000
#0111b:2323
#0121b:13000000000000000013000000000000
#01215:0000001300000000
#01218:0000001300000000
#01212:13000000000000000013000000000000
#01818:0000001300001300
#0181b:0000000013000013
#01812:24130013
#01815:0013
#0181a:24
#01912:0013000013000000
#01918:0000001300000000
#01915:00130000
#0191b:0013
#0201a:14
#02012:1400000013000013
#02015:0000001300001300
#0201b:00130013
#02018:0013
#02010:41
#02215:0000001300000013
#02218:0000001300000013
#02214:24
#02212:00230000
#0221b:00230000
#02318:00130000
#02315:0000001300000000
#0231b:0013000013000000
#02312:0013
#02415:00131300
#02418:0000001300000013
#0241b:0013
#02412:24000013
#0241a:24
#02515:0013001300000000
#02518:0000130000000024
#02512:0013
#0251b:0013
#02514:0000000000240000
#02516:00000024
#03415:0013130000001300
#0341b:0000000000130000
#03418:2600002600000013
#03412:2300002300130000
#0351b:2300002300130000
#03512:2600002600130000
#03518:0013130000001300
#03515:0000000000000013
#0371b:13
#03715:0033133300000000
#03718:0033133300000000
#03712:23
#04315:0023000000000013
#04318:00000000000000001300000000000013
#0431b:0013000000000000
#0431a:53130000
#04319:0000001300000000
#04314:63230000
#04313:0000002300000000
#04312:0023
#04412:1300001300000013
#0441b:0000001300130013
#04415:0013000000130000
#04418:00130013
#04718:000000140000000000000013
#04712:1414
#04715:000000000013
#0471a:2424
#04714:00240000
#04812:131300130000
#0481b:000000130013000000130000
#04818:001300000000000000000000
#04815:001300
#05112:12
#05117:00120000
#0511c:0012
#05114:00000012
#0511a:000000000000000000000012
#05718:00000013
#05716:0013000000000000
#06015:13
#0601b:00000053
#06012:00000053
#06216:0012
#06212:24
#0621a:24
#06318:00130000
#06312:2313
#0631b:2313
#00118:0000120000121200
#00116:00000000000000001200001200000000
#0011a:24
#00112:24
#00712:23000013
#00715:000000000000000000000013
#0071b:00002313
#00717:23
#00714:00230000
#00719:00230000
#00716:0023
#00912:1300001313130000
#00915:00000013000000000000000000530000
#00918:00000023000000000000000000130000
#0091b:2300002323000000
#00913:00000000000000000000005300000000
#00914:00000053
#00919:0000000000000053
#0091a:00000000000000000000000000000053
#01018:0013130000130000
#01015:00000013000000000000000013000000
#01012:2300001300000013
#0101b:5313
#01010:41
#01318:00000023000000000000120000000000
#01316:00000000000000000000001200000000
#0131a:00000012
#01312:1300001313000000
#01315:00000013000000000000000000000000
#0131b:2300002323000000
#01412:13000023
#0141b:00231300
#01417:13000023
#01416:00231300
#01512:1300000000000023
#01518:0000000013130000
#01515:00000000000000000013001300000000
#01517:13
#0151b:00230023
#01516:00230000
#01618:2313000000000000
#01616:00000013
#01615:00000000230023000000000000530000
#01614:0000000000000053
#01613:00000000000000000000000000000053
#0211b:0013000000000000
#02115:0000001300000000
#02118:00130024
#02112:0013
#0211a:0000000000240000
#02116:0000000000000024
#02612:1400000013000013
#0261a:14
#02615:0000001300000000
#0261b:00130013
#02617:0000000013000013
#02616:00000013
#0271b:0013000013000000
#02715:0000001300130000
#02718:0000130000130000
#02712:0013
#02816:1300000013000013
#0281b:1300000013000013
#02818:0000001300000000
#02812:00130013
#02817:00000013
#03318:0000130000240000
#03315:0000001300000000
#03312:0013
#0331b:0013000000000000
#03314:00000024
#02912:0013000000240000
#02918:0000001300000000
#02915:00130000
#0291b:0013
#02914:00000024
#02916:0000000000000024
#03615:0013000000130000
#03612:1300002600001300
#03618:2600130013000013
#0361b:0000001300000000
#03818:0013130000001300
#03812:2600002600130000
#03815:0000000000000013
#0381b:2300002300130000
#03912:2300002300130000
#0391b:0000000000130000
#03915:0013130000001300
#03918:2600002600000013
#04515:00000000000013000000000000000013
#04518:00000000000000130000000000001300
#04512:0013
#0461b:13002313
#04615:0000230013000023
#04612:0023000000002300
#04618:0000002300230000
#04915:1300001300000000
#04912:00000013000000001400000000000000
#04918:2300002300000000
#0491b:00000023000000000000000000000000
#0491a:0024
#05214:121200121200
#05218:001200000000000000000000
#0521a:000000120012000000120012
#05216:001200
#05312:12000026
#05318:000012000000120000260000
#0531a:0000001200000000
#05316:000000003200000000320000000000000000000000000000
#05512:530000130013000000130013
#05518:000000530000000000000000000000001300000000000000000000000000000000000000000000001300000000000000
#0551b:000000530000130013000000
#05515:000000000000001300000000
#05517:13
#05519:0053000000000000
#0551a:00000053000000000000000000000000
#05912:1313
#0591a:000000140014000000000000
#0591b:53000013
#05916:001400
#06115:1300001300000000
#06112:00000013000000001400000000000000
#0611f:11
#06118:2300002300000000
#0611b:00000023000000000000000000000000
#0611a:0024
#06618:26130013
#06612:1313
#06715:00000013
#0671b:00000013
#06718:000000000000000000000013
#06712:0023
#06716:23
#06719:00230000
#06714:00230000
#06717:0023
#06815:130013000000130000130000
#06818:000000000000130000001300000000130000000000130000
#0681b:001300000000000000000000
#06812:001300
#06416:13
#06417:0013
#06419:24
#06413:0024
#06516:13
#06517:0013
#06512:0025
#06519:24
#0691b:1300001300000000
#06918:00000013000000001600000000002300
#06912:2300002326000000
#06915:00000023000000000000000000000023
#07514:00140000
#0751a:1414
#07518:000000240000000000001300
#07515:000000000000000000000013
#07512:2424
#07715:13000000000013000000000000130000
#07712:00000013000000001400000000000000
#0771b:00000023000000000000130000000000
#07718:23000000000023000000000000530000
#0771a:00000000000000002400005300000000
#07719:00000053
#07714:0000000000000053
#07713:00000000000000000000000000000053
#07918:0013000000000013
#07915:23132313
#07912:0000001300130000
#0791b:2323
#07818:0013130000130000
#07815:00000013000000001300000013000000
#07812:5300001300000013
#0781b:23001313
#08118:00000013000000000000120012001200
#08116:00000000000000000000001200120000
#0811b:1300001313000000
#08112:2300002323000000
#08115:00000023000000000000000000000000
#0821b:1300001313001300
#08218:00000013000000000000000000001300
#08212:2300002323000000
#08215:00000023000000000000000000000000
#08315:13
#01717:13
#01712:53240000
#01716:00000000000000240000000000000000
#0171a:00000053000000000000240000000000
#01718:00530000000000000000000000000000
#01719:0053000000000000
#0171b:00530000
#03018:2400001300000000
#0301b:0000000013000013
#03012:00130013
#03016:0000000013000013
#03017:00000013
#03010:41
#03112:0013000013000000
#03118:0000001300130000
#03115:0000130000130000
#0311b:0013
#03217:1300000013000013
#03212:1300000013000013
#03215:0000001300000000
#0321b:00130013
#03216:00000013
#04218:00001300000000230000130000005300
#04215:00000013000023000000001300000000
#0421b:00130013
#04212:2300000023000063
#04210:41
#04219:00000000000000000000000000000053
#04213:00000000000000000000000000000063
#05016:001200121200
#05018:000000120012000000120012
#05012:24
#0501a:24
#0541b:1353
#05412:0013
#05410:41
#0541a:00530000000000530000000000000000
#05419:0053005300000000
#05418:00000053005300000000000000000000
#05417:00530000
#05413:00000000000000000053000000000053
#05414:0000000000530053
#05415:00000000000000000000005300530000
#05416:00000053
#05812:1353
#0581b:0013
#05813:00530000000000530000000000000000
#05814:0053005300000000
#05815:00000053005300000000000000000000
#05816:00530000
#0581a:00000000000000000053000000000053
#05819:0000000000530053
#05818:00000000000000000000005300530000
#05817:00000053
#07118:0023000000000013
#07115:00000000000000001300000000000013
#07112:0013000000000000
#07113:53130000
#07114:0000001300000000
#07119:63230000
#0711a:0000002300000000
#0711b:0023
#07110:41
#0721b:1300001300000023
#07212:0000001300130013
#07218:0013000000230000
#07215:00130023
#07318:0000001300000000
#07315:00000000000000130000000000000000
#0731b:0000000013000013
#07312:00000023
#07316:0000000000000023
#07418:0000230013000023
#07412:00002313
#0741b:0023000000002300
#07415:0000002300230000
#07015:00001300000000230000130000005300
#07018:00000013000023000000001300000000
#07012:00130013
#0701b:2300000023000063
#0701f:21
#07014:00000000000000000000000000000053
#0701a:00000000000000000000000000000063
#0761b:131300130000
#07612:000000130013000000130000
#07615:001300000000000000000000
#07618:001300
#08012:13000000000000000013000000000000
#08018:0000001300000000
#08015:0000001300000000
#0801b:13000000000000000013000000000000
#0411b:00000013000013001300000000000000
#04118:13000000000000000000000000000023
#04115:00000033000000000000000000002300
#04112:23
#04018:0013260000132600
#04015:0000001300000013
#04012:2626
#00212:24
#0021a:0024
#00217:23
#00216:0023
#00312:2423
#0031b:0023000023000000
#00318:23230000
#00315:0000002300000000
#00413:24
#00417:23
#00416:0023
#00517:23
#00516:0023
#0015a:14
#00152:14
#05652:0000000000000053
#0565b:53000000000000000053000000000000
#06252:14
#0625a:14
#0075b:0013
#00756:0013
#0145b:00136300
#01452:53000013
#01456:00130000
#01457:00000013
#0185b:0000000000000063
#01852:14
#0185a:14
#01952:0053
#0195b:0063
#01958:00000014
#01954:00000014
#0225b:0000000000130000
#02255:0000005300000063
#02252:0000000000130000
#02254:14
#02258:0000005300000000
#0245b:0063
#02458:0000000000000053
#03752:5300000000130000
#0375b:5300000000130000
#03755:00530000
#03758:00630000
#0445b:0000000000000053
#05358:00000016
#05352:52000016
#06055:53
#08452:0014
#00252:14
#0025a:0014
#00352:1453
#0035b:0063
#00453:34
#00457:53
#00456:0053
#00459:0044
#01552:53
#0155b:00130000
#01556:00130000
#02052:0000000000000053
#02352:0053
#0235b:0063
#02354:00000014
#02358:00000014
#02652:1400000000000053
#0265a:14
#0275b:00006343
#02752:00005333
#02758:0000000000230000
#02755:0000000000230000
#0285b:0000000000000063
#03458:0000001600000000
#03552:0000001600000000
#03852:0000001600000000
#03958:0000001600000000
#04352:0053
#04358:0053
#04552:0063
#04852:0053
#04856:00000013
#0485b:00000013
#04952:0034
#0495a:0044
#05756:0023000000000000
#05758:00000053
#05952:5353
#0595b:00000063
#06152:0034
#0615a:0044
#06352:0053
#0635b:0063
#06755:00000063
#06752:0013
#06757:0013
#06456:63
#06457:0053
#06459:44
#06453:0034
#06556:63
#06557:0053
#06552:0035
#06559:44
#06958:0046
#06952:0036
#06658:46530053
#06652:5353
#07752:0034
#0775a:0044
#08355:53
#01752:00140000
#01756:00000000000000140000000000000000
#0175a:0000000000140000
#00952:0013
#0095b:0013
#01255:0000005300000000
#01258:0000005300000000
#01252:00000000000000000023000000000000
#0125b:00000000000000000023000000000000
#01352:0013
#0135b:0013
#0305b:0000000000000063
#03058:14
#03152:00005333
#0315b:00006343
#03158:0000000000230000
#03155:0000000000230000
#03252:0000000000000053
#0475a:1414
#04754:00140000
#07252:0000000000000063
#07155:0063
#0715b:0063
#0735b:0053
#07356:0000000000000013
#07552:1414
#07558:00140000
#07652:00000013
#0765b:0063
#07657:00000013
#08058:0000006300000000
#08055:0000006300000000
#0805b:00000000000000000023000000000000
#08052:00000000000000000023000000000000
#0815b:0013
#08152:0013
#0825b:0013
#08252:0013
#03658:16
#03652:0000001600000000
#0415b:0013
#04155:0013
#04052:1616
#04058:00160016
#00557:53
#00556:0053
#00559:0045
#00553:34
#00652:36
#003320:0013
#003350:00000023
#0033b1:0013
#003381:00000023
#004371:13
#004391:0024
#004360:0013
#005330:24
#005371:13
#005391:0025
#005360:0013
#006320:26
#012350:0013003300002300
#012320:00000000000000000053000000000000
#012381:0000001300002300
#0123b1:00000000000000000053000000000000
#014321:13
#014361:00230000
#0143b1:0013
#014371:00000023
#015321:13
#015361:00230000
#016391:0000000000000000000000000000000014343434343434342400000000000000
#016381:00000000000000000000000000000000000000000000000000000000000000000056000000560000005600000056000000000000000000000000000000000000
#0163a1:00000000000000000000000000000000000000000000000000000000000000000000005200000052000000520000005200000000000000000000000000000000
#0183b1:0000000000000013
#019381:0023000000000000
#019321:0013
#019341:00000024
#0193b0:0013
#019380:00000024
#020320:0000000000000013
#021350:0023000000000000
#022380:0000001300000000
#0223b0:0000000000230000
#022351:0000001300000000
#022321:0000000000230000
#022351:0000000000000013
#023321:0023000000000000
#023321:0013
#023341:00000024
#0233b0:0013
#023380:00000024
#0243b0:0013
#024380:00000023
#024380:0000000000000013
#0253b0:0023000000000000
#026320:0000000000000013
#027360:0023000000000000
#0273b0:00001323
#027380:0000000000530000
#027321:00001323
#027351:0000000000530000
#0283b1:0000000000000013
#029371:0023000000000000
#0303b1:0000000000000013
#031371:0023000000000000
#031321:00001323
#031351:0000000000530000
#0313b0:00001323
#031380:0000000000530000
#032320:0000000000000013
#033360:0023000000000000
#037320:1300000033230000
#037350:0033333300000000
#0373b1:1300000033230000
#037381:0033333300000000
#041321:13
#041351:00000033000033002300000000000000
#043321:0013
#043351:00000023
#043380:0013
#0433b0:00000023
#0443b0:0000000000000013
#045380:0000002300000000
#045320:0013
#045350:0000000000000023
#048320:0013
#048360:00000023
#053320:12
#053360:000000003200000000320000220000000000000000000000
#0563b0:13
#056380:0000002300000000
#0563b0:00000000000000000013000000000000
#056380:0000000000000023
#056321:0000000000000013
#057361:0053000000000000
#057321:000000000000000000000000000000000000335433543354335433553355335533553355230000000000000000000000
#057380:00000013
#0583b0:23
#059320:13
#059360:00230000
#059320:0013
#059350:00000023
#0593b1:00000013
#060381:23
#060350:13
#060320:000000000000000000000000335433543354335433543354335533553355335533553355230000000000000000000000
#0603b1:000000000000133333333333333333333333230000000000
#0603a1:000000000000000000000000005400540054005400540054000000000000000000000000000000000000000000000000
#060391:000000000000000000000000000000000000000000000000005500550055005500550055000000000000000000000000
#063321:0013
#063351:00000023
#0633b0:0013
#063380:00000023
#064360:13
#064330:0024
#064371:0013
#065391:24
#065360:13
#065320:0025
#065371:0013
#066381:26
#066320:13
#066350:00230000
#066381:00130000
#0663b1:0023
#066320:0013
#066350:00000023
#066381:00000013
#0673b1:23
#067351:00000013
#067321:000000000000000000000023
#0713b1:0013
#071381:00000023
#071350:0013
#071320:00000023
#072320:0000000000000013
#073350:0000002300000000
#0733b0:0013
#073370:00000023
#0763b0:0013
#076370:00000023
#080380:0013003300002300
#0803b0:00000000000000000053000000000000
#080351:0000001300002300
#080321:00000000000000000053000000000000
#083351:13
#083321:000000000000000000000000000000000000000000000000000000000000000000000000000000000000335253525352
#084321:535253525352535253525352535253525352535253525352240000000000000000000000000000000000000000000000
#009920:0000000000130000
#009950:00000000000000000000000000230000
#009981:00000000000000000000000000130000
#0109b1:23
#016961:00000013
#017921:23
#017970:13
#0179b0:00230000
#042920:0000000000000013
#043940:23
#042981:0000000000000013
#0439a1:23
#0549b1:1323
#054971:00530000
#054920:0013
#054960:00000053
#055920:23
#055971:13
#0559b1:00230000
#056981:0000001300000000
#0569b1:00000000000000000023000000000000
#058921:1323
#058961:00530000
#0589b0:0013
#058970:00000053
#0599b0:23
#0709b0:0000000000000013
#071990:23
#070951:0000000000000013
#071931:23
#0779b1:0000000000130000
#077981:00000000000000000000000000230000
#077950:00000000000000000000000000130000
#078920:23
