This file was generated by Ched 2.7.0.0.
#TITLE ""
#ARTIST ""
#DESIGNER ""
#DIFFICULTY 0
#PLAYLEVEL
#SONGID ""
#WAVE ""
#WAVEOFFSET 0
#JACKET ""
#REQUEST "ticks_per_beat 480"
#00002: 4
#BPM01: 181
#00008: 01
#TIL00: ""
#VOLUME: ""
#HISPEED 00
#MEASUREHS 00
#00013:0014
#00019:0014
#00016:14
#03212:1313
#0321b:13000013
#03215:0000130000000013
#03218:0000001300000000
#05618:0000000000000013
#05612:13000013
#05617:0013000000000000
#05614:00130000
#05619:0000001300000000
#05616:0013
#0561b:0000000000130000
#00612:0013000000000013
#00618:00130013
#00615:0000001300130000
#0061b:0013
#0071b:00000013
#0071a:24
#00716:00240000
#00712:0024
#01015:0013000000001300
#01018:0000130000130000
#01012:0000001300000013
#0101b:2313
#01010:41
#0121b:13
#01215:0013000000000000
#01212:0000001300000000
#01815:0000001300000000
#0181b:0013
#01812:24000013
#01818:0000130000000013
#0181a:24
#01915:00131300
#01918:0000001300000000
#0201b:1313
#02012:13000013
#02018:0000130000000013
#02015:0000001300000000
#02010:41
#02115:0000130000000023
#02118:0000001300002300
#02112:0013
#0211b:0000000000230000
#02215:0000230000000013
#02218:0000001300000000
#02212:23
#02318:00131300
#02315:0000001300000000
#02418:00130000
#02415:0000001300000000
#0241b:2313
#02412:2300000000000013
#0251b:00130000
#02515:0000001300002300
#02518:0000000013000023
#02512:0000000000230000
#02618:0000130000000013
#02615:0000001300000000
#0261b:1313
#02612:00000013
#02712:00130000
#02718:0000001300000000
#02715:0013
#0281b:1313
#02815:0000001300000000
#02812:00000013
#02818:0000000000000013
#02915:0000130000000023
#0291b:0000001300230000
#02912:0013
#02918:00000023
#03015:00130000
#03018:0000001300000000
#03012:2313
#0301b:0000000000000013
#03010:41
#03112:0013000000130000
#03118:00130013
#03115:0000001300000000
#0311b:0013
#03318:00130000
#03315:0000001300000000
#0331b:0013
#03312:0000000000242400
#03415:0013000000001300
#03418:0000130000000013
#0341b:0000000000130000
#0341a:24
#03412:0000002400000000
#0351b:0000000000130000
#03515:0033330000001300
#03518:0000000000000013
#03512:23
#0361b:0013000000130000
#03615:0000130000000013
#03612:2413
#03618:0000002400000000
#0371b:13
#03712:23
#03715:0033330000000000
#03718:0033330000000000
#03818:0013000000001300
#03815:0000130000000013
#03812:2400000000130000
#0381a:0000002400000000
#03912:0000000000130000
#03918:0033330000001300
#03915:0000000000000013
#0391b:23
#04015:0013000000000013
#04012:0000001300130000
#0401a:2424
#04018:00240024
#04112:13
#0411b:23
#04115:00000033000000000000000000002300
#04118:00000033000000000000000000000000
#04114:00000000000000000000000000000063
#04412:0013000000000000
#0441b:0000130000000013
#04415:0000001300001300
#04418:1300000000130000
#05015:0013
#0501b:00131300
#05012:23000013
#05018:23
#05112:13000013
#05115:00130000
#05118:1313
#05315:00000013000000001300000000000000
#05318:0000001300002600
#0531b:53
#05412:2313
#05415:00130000
#05410:41
#0551b:1313
#05518:00130000
#0581b:13130000
#05816:0013001300000000
#05819:0013
#05817:00000013
#05814:0000000000130000
#05812:0000000000000013
#0591b:1313
#05918:00130000
#06015:13
#06012:00000053
#06315:0013
#06314:13
#06319:23
#06318:0023
#06412:0013
#06418:0013
#06415:13
#0641b:23
#06515:13
#06512:0013
#0651b:13
#06518:0013
#06618:0013001300130000
#06615:00130013
#06612:0013
#0661b:0000000000000013
#06912:13
#0691b:23
#06918:00000033000000000000000000002300
#06915:00000033000000000000000000000000
#06919:00000000000000000000000000000063
#07715:13
#07718:23
#0771b:00000033000000000000000000000000
#07712:00000033000000000000000000000000
#0811b:00000013
#08112:24000013
#08114:00000034000034000000000000000000
#08215:00000013
#08218:00000034000034000000000000001300
#0821a:24
#00214:14
#00218:0014
#0021a:24
#00212:0024
#00314:0014000000000000
#00312:0000001400000000
#0031a:2424
#00318:00240000
#00812:1414
#0081a:00140000
#00818:000000000054000000140000
#00813:005400000000000000000000
#00814:005400000000
#00815:00540000
#00819:005400
#00817:0054
#01115:0013001300000000
#0111b:23130000
#01112:0000000000130013
#01118:00002313
#01412:1313
#01415:00130013
#0141a:0014001400140014
#0171b:1313
#01718:00130013
#01714:0014001400140000
#0151b:1313
#01518:00130013
#01512:0014001400140014
#01612:1313
#01615:00130013
#01618:0014001400140014
#04218:0013000000000000
#04219:00000053000000000000130000000000
#0421b:00000000000000000000000053001333
#04214:0000002300000000
#04212:00000000000000006300000000002333
#04210:41
#0421a:00000000530000000000005300000000
#04213:63000000000000630000000000000000
#04318:0013
#04315:0013
#0521b:130000000000530000000053
#05218:000000530000000053530000
#0521a:005300000053000000000000
#05219:005353000000
#04915:13
#04918:23
#0491b:00000033000000000000000000000000
#04912:00000033000000000000000000000000
#04812:1414
#0481a:00140014
#04813:005400000000000000000000
#04814:005400000000
#04815:00540000
#04819:005400
#04818:000000000054000000000000
#04817:0054
#06212:14
#06213:0013
#0621a:2423
#06812:1414
#0681a:00140000
#06818:000000000054000000140000
#06813:005400000000000000000000
#06814:005400000000
#06815:00540000
#06819:005400
#06817:0054
#0721b:0013000000000000
#07212:00130000
#07218:0000001300002300
#07215:1300000000230013
#07015:0013000000000000
#07014:00000053000000000000130000000000
#07012:00000000000000000000000053001333
#07019:0000002300000000
#0701b:00000000000000006300000000002333
#0701f:21
#07013:00000000530000000000005300000000
#0701a:63000000000000630000000000000000
#07115:0013
#07118:0013
#07110:41
#0761a:1414
#07612:00140014
#07619:005400000000000000000000
#07618:005400000000
#07617:00540000
#07613:005400
#07614:000000000054000000000000
#07615:0054
#07818:0013000000001300
#07815:0000130000130000
#0781b:0000001300000013
#07812:2313
#08012:13
#08018:0013000000000000
#0801b:0000001300000000
#07918:0013001300000000
#07912:23130000
#0791b:0000000000130013
#07915:00002313
#08314:14
#0611f:11
#06118:2300002300000000
#06115:00000023000000002300000000000000
#0131a:24
#01318:00000034000034000000000000000000
#0011a:24
#00112:24
#00914:24
#00912:00000034000034000000000000000000
#00412:24
#0041a:0024
#00512:24
#0051a:0024
#0461a:0024002400000024
#04616:0000240000240000
#04612:00002424
#04712:24
#04716:00240000
#0471a:0024
#06712:24
#06716:00240000
#0671a:0024
#07412:0024002400000024
#07416:0000240000240000
#0741a:00002424
#0751a:24
#07516:00240000
#07512:0024
#0731b:00000000000000330000000000002300
#04512:00000000000000000000000000000033
#04515:00000000000000330000000000000000
#0571b:00000053
#05658:0000000000000053
#00752:0014
#01358:0014
#0135a:54
#01852:14
#0185a:14
#01858:0000000000000053
#01955:0063
#01952:00000013
#02058:0000000000000053
#0225b:0000000000130000
#02255:0000000000000063
#02252:13
#02258:0000005300000000
#02358:0053
#0235b:00000013
#0245b:0063
#02452:0000000000000053
#02658:0000000000000053
#0265b:13
#02755:0063
#02752:00000013
#0285b:63
#02858:0000000000000053
#03052:1353
#03255:0000000000000053
#03552:53
#03555:0000001300000000
#03755:0000000000130000
#03752:53
#03758:0000000000130000
#0375b:53
#0395b:63
#03958:0000001300000000
#04152:53
#04155:0013
#04158:0013
#0415b:63
#0445b:0000000000000053
#05358:00000016
#05452:5353
#05455:00530000
#0555b:6363
#05558:00630000
#0595b:6363
#05958:00630000
#06055:53
#06155:0013
#0645b:53
#06452:0053
#06458:0053
#06455:53
#06555:53
#06552:0053
#0655b:53
#06558:0053
#06952:53
#0695b:63
#06955:0013
#06958:0013
#07755:63
#07758:53
#07752:0013
#0775b:0013
#08452:0014
#00952:0014
#00954:54
#0035a:0054
#00452:64
#0045a:0054
#00552:64
#0055a:0054
#01255:0053000000000000
#01252:0000005300000000
#04358:0053
#04355:0063
#0425b:0000000000000053
#04252:0000000000000053
#04752:14
#04756:00140000
#0475a:0014
#04955:63
#04958:53
#04952:0013
#0495b:0013
#0675a:0014
#07255:0000000000000063
#07052:0000000000000063
#0705b:0000000000000063
#07155:0063
#07158:0053
#0755a:14
#07556:00140000
#07552:0014
#08058:0063000000000000
#0805b:0000006300000000
#08152:64
#08154:0014
#0825a:54
#08258:0014
#08354:54
#03158:00000013
#0735b:0000000000000013
#0033a0:0014
#004380:24
#004321:14
#004341:0024
#0043a0:0014
#005380:24
#005321:14
#005341:0024
#0053a0:0014
#006380:24
#009340:14
#009320:00000034000034002400000000000000
#012350:0013000000002300
#012320:0000003300000000
#0133a0:14
#013380:00000034000034002400000000000000
#018380:0000000000000013
#0193b0:0023000000000000
#019350:0013
#019320:00000023
#020380:0000000000000013
#0213b0:0023000000000000
#022380:0000001300000000
#0223b0:0000000000230000
#022350:0000000000000013
#023320:0023000000000000
#023380:0013
#0233b0:00000023
#0243b0:0013
#024380:00000023
#024320:0000000000000013
#025350:0023000000000000
#026380:0000000000000013
#0273b0:0023000000000000
#027350:0013
#027320:00000023
#0283b0:13
#028380:00230000
#028380:0000000000000013
#0293b0:0023000000000000
#030320:0013
#030350:00000023
#032350:0000000000000013
#033320:0023000000000000
#035320:13
#035350:0033332300000000
#037320:13
#037350:0033333333230000
#0373b1:13
#037381:0033333333230000
#0393b1:13
#039381:0033332300000000
#041321:13
#041351:00000033000033002300000000000000
#0413b0:13
#041380:00000033000033002300000000000000
#0423b0:00000000000000000000000000001333
#043380:3333333333000000
#0433b0:00000023
#042321:00000000000000000000000000001333
#043351:3333333333000000
#043321:00000023
#0443b1:0000000000000013
#045381:0000002300000000
#045320:00000000000013000000000000000033
#045350:00000000000000333300000000003300
#046320:23
#049350:13
#049320:00000033000033002300000000000000
#049381:13
#0493b1:00000033000033002300000000000000
#054321:1333
#054351:00330023
#0553b1:1333
#055381:00330023
#056381:0000000000000013
#0573b1:000000000000000000535353535353535353230000000000
#0573a1:000000000000000000000000000000000000005400540054005400540054005400540054000000000000000000000000
#0593b1:1333
#059381:00330023
#060351:13
#060321:000000000000000000000000535453545354535453545354535453545354535453545354230000000000000000000000
#0643b1:13
#064381:0033
#0653b1:33
#065381:0033
#0663b1:23
#064350:13
#064320:0033
#065350:33
#065320:0033
#066350:23
#069320:13
#069350:00000033000033002300000000000000
#0693b1:13
#069381:00000033000033002300000000000000
#070321:00000000000000000000000000001333
#071351:3333333333000000
#071321:00000023
#0703b0:00000000000000000000000000001333
#071380:3333333333000000
#0713b0:00000023
#072350:0000000000000013
#073320:0000002300000000
#073381:0000001300000000
#0733b1:00000000000000333300000033002300
#077351:13
#077321:00000033000033002300000000000000
#077380:13
#0773b0:00000033000033002300000000000000
#080380:0013000000002300
#0803b0:0000003300000000
#081320:14
#081340:00000034000034002400000000000000
#0823a0:14
#082380:00000034000034002400000000000000
#083340:14
#083320:000000000000000000000000000000000000000000000000000000000000000000000000000000000000345354535453
#084320:545354535453545354535453545354535453545354535453240000000000000000000000000000000000000000000000
#008920:14
#008950:00240000
#0089a1:00140000
#008971:0024
#041951:0000000000000013
#042931:23
#042981:0013000000000000
#0429a1:00230000
#042941:0000001300000000
#042921:0023
#042991:0000000000130000
#0429b1:00000023
#048921:14
#048951:00240000
#0489a0:00140000
#048970:0024
#0529b0:130000000000530000000053
#052980:000000530000000053530000
#0539b0:23
#068920:14
#068950:00240000
#0689a1:00140000
#068971:0024
#069981:0000000000000013
#0709a1:23
#070951:0013000000000000
#070931:00230000
#070991:0000001300000000
#0709b1:0023
#070941:0000000000130000
#070921:00000023
#0769a1:14
#076971:00240000
#076920:00140000
#076950:0024
