This file was generated by Ched 2.7.0.0.
#TITLE ""
#ARTIST ""
#DESIGNER ""
#DIFFICULTY 0
#PLAYLEVEL
#SONGID ""
#WAVE ""
#WAVEOFFSET 0
#JACKET ""
#REQUEST "ticks_per_beat 480"
#00002: 4
#BPM01: 181
#00008: 01
#TIL00: ""
#VOLUME: ""
#HISPEED 00
#MEASUREHS 00
#01112:1414
#01118:00140000
#0121a:1414
#01214:00140000
#01914:14
#0191a:00140000
#01912:0014
#02112:00140000
#02118:14
#0211a:0014
#02312:1414
#0231a:00140000
#05214:14
#05218:0014
#05518:14
#05512:00140000
#05519:0014
#05513:00000014
#0561a:14
#05614:00140000
#05618:0014
#05612:00000014
#08014:14
#0801a:00140000
#08012:0014
#08018:00000014
#00818:14
#01014:00140000
#0101a:2414
#01010:41
#00018:16
#00012:0016
#0141a:1414
#01414:00240024
#01518:1414
#01512:00240024
#01818:00140014
#01812:2414
#0201a:1414
#02014:00140014
#02010:41
#02214:1414
#02218:00140014
#02418:1414
#02414:00140014
#0251a:1414
#02512:00140000
#02612:24140000
#02618:00001414
#02714:1414
#0271a:00140000
#0281a:14140000
#02814:00001414
#02918:1414
#02912:00140000
#03014:14140000
#03018:00001414
#03010:41
#03112:1414
#0311a:00140000
#0321a:14140000
#03212:00001414
#03318:1414
#03314:00140000
#04114:14
#04112:00000034000034000000000000000000
#04214:00140000
#04218:0014
#04212:00000014
#0421a:24
#04210:41
#04318:14
#04418:00140000
#04414:0014
#0441a:00000014
#04412:14
#04514:14
#04614:00140000
#04618:0014
#04612:00000014
#0461a:14
#0471a:1414
#04712:00140000
#04814:14
#0511a:14
#05112:14
#05314:14
#05312:00000034000034000000000000000000
#05414:00140000
#05419:0014
#05413:00000014
#0541a:24
#05410:41
#0571a:14
#05814:14
#05818:00140000
#05812:0014
#0581a:00000014
#05914:14
#05918:00140000
#05912:0014
#0591a:00000014
#06014:14
#06012:0014
#06114:14
#0611f:11
#06112:00000034000034000000000000000000
#0651a:14
#06418:0014
#0641a:24
#06818:14
#07014:00140000
#07018:0014
#07012:00000014
#0701a:24
#0701f:21
#07118:14
#07110:41
#07218:00140000
#07214:0014
#0721a:00000014
#07212:14
#07314:14
#07414:00140000
#07418:0014
#07412:00000014
#0741a:14
#0751a:1414
#07512:00140000
#07614:14
#07818:00140000
#07814:0014
#0781a:00000014
#07812:24
#07912:14140000
#0791a:00001414
#08114:14
#08112:00000034000034000000000000000000
#00218:0014
#00214:24
#00314:1414
#00318:00140000
#0061a:1414
#00614:00140014
#01618:14
#06612:14
#0661a:0014
#05012:24
#0501a:24
#06218:24
#0041a:24
#00414:0024
#00518:24
#00512:0024
#0071a:24
#00716:00240000
#00712:0024
#00914:24
#00118:26
#01312:24
#03412:2400002400000000
#0351a:2400002400000000
#03614:2400002400000000
#03718:2400002400000000
#03812:2400002400000000
#0391a:2400002400000000
#06314:24
#06714:2424
#06718:00240000
#06914:24
#04918:24
#07718:24
#08218:24
#0821a:00000034000034000000000000000000
#00858:64
#04154:64
#04152:0014
#04358:54
#04554:64
#04854:54
#05354:64
#0575a:64
#06054:64
#06052:0024
#06154:64
#06152:0014
#0655a:54
#06558:0014
#06458:0054
#0645a:54
#06858:64
#07158:54
#0715a:0014
#07354:64
#07352:0014
#0755a:0014
#07654:54
#08154:64
#08152:0014
#00954:0014
#01658:54
#04958:0014
#07758:0014
#0825a:0014
#08258:54
#008380:14
#0083a0:0024
#009340:14000034000034002400000000000000
#013320:14000034000034002400000000000000
#016380:14
#0173a0:0024
#040340:14
#040320:0034
#041340:34
#041320:00000034000034002400000000000000
#043380:14
#0433a0:0024
#045340:14
#045320:0024
#048340:14
#048320:0024
#049380:14000034000034002400000000000000
#053340:14
#053320:00000034000034002400000000000000
#0573a0:14
#057380:0024
#060340:14
#060320:0054
#061340:34
#061320:00000034000034002400000000000000
#0643a0:14
#064380:0034
#0653a0:34
#065380:0024
#068380:14
#0683a0:0024
#069340:14000034000034002400000000000000
#071380:14
#0713a0:0024
#073340:14
#073320:0024
#076340:14
#076320:0024
#077380:14000034000034002400000000000000
#081340:14
#081320:00000034000034002400000000000000
#082380:14
#0823a0:00000034000034002400000000000000
#083340:14
#083320:0000000000000034
#084320:0024
