This file was generated by Ched 2.7.0.0.
#TITLE ""
#ARTIST ""
#DESIGNER ""
#DIFFICULTY 0
#PLAYLEVEL
#SONGID ""
#WAVE ""
#WAVEOFFSET 0
#JACKET ""
#REQUEST "ticks_per_beat 480"
#00002: 4
#BPM01: 135
#00008: 01
#TIL00: ""
#VOLUME: ""
#HISPEED 00
#MEASUREHS 00
#00219:14
#00313:14
#00419:14
#00512:14
#00618:14
#00712:14
#00818:14
#00914:14
#0101a:14
#01114:14
#01414:14
#0151a:14
#01614:14
#01718:14
#01812:14
#01918:14
#02012:14
#02112:0016
#02118:26
#02110:41
#02218:16
#02312:16
#02318:0016
#02412:16
#02518:16
#02512:0016
#02618:16
#02712:16
#02718:0016
#03112:14
#03218:14
#03314:14
#0341a:14
#03512:14
#03618:14
#03714:14
#0381a:14
#03810:41
#04012:14
#04118:14
#04218:14
#04314:14
#04414:14
#0451a:14
#04510:41
#04814:14
#0491a:14
#05014:14
#05118:14
#05212:14
#05318:14
#05412:14
#05512:0016
#05518:26
#0551f:21
#05618:16
#05610:41
#05712:16
#05718:0016
#05812:16
#05918:16
#05912:0016
#06018:16
#06112:16
#06118:0016
#06914:14
#07018:14
#07014:00140000
#0471f:11
#03912:24
#01310:41
#02910:41
#0123a0:14
#0133a0:24
#028320:1626
#029380:16
#030390:24
#0463a0:14
#0473a0:24
#062320:1626
#0633a0:14
#0643a0:24
#065340:14
#066340:24
#067380:14
#068380:24
