This file was generated by Ched 2.7.0.0.
#TITLE ""
#ARTIST ""
#DESIGNER ""
#DIFFICULTY 0
#PLAYLEVEL
#SONGID ""
#WAVE ""
#WAVEOFFSET 0
#JACKET ""
#REQUEST "ticks_per_beat 480"
#00002: 4
#BPM01: 135
#00008: 01
#TIL00: ""
#VOLUME: ""
#HISPEED 00
#MEASUREHS 00
#00512:1414
#00518:00140000
#0061a:1414
#00614:00140000
#00712:1414
#00718:00140000
#0081a:1414
#00814:00140000
#00914:1414
#00918:00140000
#0101a:1414
#01012:00140000
#01312:14
#01318:00140000
#01313:0014
#01319:00000014
#01310:41
#01413:14
#01418:00140000
#01412:0014
#0151a:14
#01514:00140000
#01519:0014
#01513:00000014
#01619:14
#01614:00140000
#0161a:0014
#01713:14
#01719:00140000
#01712:0014
#01718:00000014
#01812:14
#01819:00140000
#01813:0014
#0191a:14
#01914:00140000
#01918:0014
#01912:00000014
#0201a:14
#02018:00343400
#02112:14
#02118:00140000
#02114:0014
#0211a:00000014
#02110:41
#02214:14
#02218:00140000
#02212:0014
#02514:14
#0251a:00140000
#02512:0014
#02518:00000014
#02612:14
#0261a:00140000
#02614:0014
#0231a:14
#02314:00140000
#02318:0014
#02312:00000014
#02418:14
#02414:00140000
#0241a:0014
#02718:14
#02712:00140000
#0271a:0014
#02714:00000014
#02818:14
#0281a:00343400
#0311a:14
#03114:0014
#03118:00000014
#03212:14
#03218:0014
#03214:00000014
#0331a:14
#03314:0014
#03318:00000014
#03414:1414
#03418:00140014
#03512:14
#03518:0014
#03514:00000014
#0361a:14
#03614:0014
#03618:00000014
#03712:14
#03718:0014
#03714:00000014
#0381a:14
#03810:41
#03918:0014
#03914:00000014
#03912:24
#04014:0014
#04018:00000014
#0401a:24
#04118:0014
#04114:00000014
#04112:24
#04218:1414
#04214:00140014
#04314:0014
#04318:00000014
#0431a:24
#04418:0014
#04414:00000014
#04412:24
#04514:0014
#04518:00000014
#0451a:24
#04510:41
#0471a:1414
#04714:00140014
#0471f:11
#0481a:14
#04816:00140000
#04812:0014
#04912:1414
#04918:00140014
#05012:14
#05016:00140000
#0501a:0014
#0511a:1414
#05114:00140014
#0521a:14
#05216:00140000
#05212:0014
#05312:14
#05318:00140000
#05314:0014
#0531a:00000014
#05412:14
#05414:00343400
#05514:00140000
#05518:0014
#05512:00000014
#0551a:24
#0551f:21
#05618:14
#05614:00140000
#0561a:0014
#05610:41
#05912:00140000
#0591a:0014
#05914:00000014
#05918:24
#0601a:14
#06012:00140000
#06018:0014
#05718:00140000
#05714:0014
#0571a:00000014
#05712:24
#05814:14
#05818:00140000
#05812:0014
#0611a:00140000
#06112:0014
#06118:00000014
#06114:24
#06214:14
#06212:00343400
#06915:1313
#06918:00130013
#07015:13
#07018:00130000
#02910:41
#01452:0014
#0165a:0014
#01853:0014
#0205a:54
#02252:0014
#02654:0014
#0245a:0014
#02858:64
#03552:14
#0385a:14
#0435a:14
#05452:64
#0565a:0014
#06058:0014
#05852:0014
#06254:54
#002380:14000024
#003340:14000024
#0043a0:14000024
#011320:14
#011340:00000024
#012380:14
#0123a0:00000024
#0203a0:14
#020380:00343424
#028380:14
#0283a0:00343424
#029320:16
#030320:3333003323000000
#046320:1454545424000000
#046330:00540054005400540000000000000000
#054320:14
#054340:00343424
#062340:14
#062320:00343424
#063380:1434
#0643a0:3424
#065340:1434
#066320:3424
#0673a0:1434
#068380:3424
#070980:0000130000230000
