This file was generated by Ched 2.7.0.0.
#TITLE ""
#ARTIST ""
#DESIGNER ""
#DIFFICULTY 0
#PLAYLEVEL
#SONGID ""
#WAVE ""
#WAVEOFFSET 0
#JACKET ""
#REQUEST "ticks_per_beat 480"
#00002: 4
#BPM01: 148
#00008: 01
#TIL00: ""
#VOLUME: ""
#HISPEED 00
#MEASUREHS 00
#01318:1300000000000013
#01315:00000013
#0131a:00000033000000000000000000000000
#0321b:13
#03212:0013
#03415:0013000000000000
#0341b:00131300
#03412:0000001300000013
#03418:23
#03518:0000130013000014
#03512:00000014
#03515:0000001300000000
#0361a:00141400
#03614:0000001400000000
#03612:14000014
#03610:41
#01615:0000000000000013
#01612:13
#01618:13
#0161b:0000000000000013
#01614:00000033000000000000000000000000
#0161a:00000033000000000000000000000000
#01718:0000000000130013
#01715:13000013
#0171b:13
#01719:00000033000000000000000000000000
#01713:00000033000000000000000000000000
#01215:0000000000000013
#0121b:13
#01219:00000033000000000000000000000000
#01210:41
#01518:00000013
#01515:0000000000130013
#0151b:13
#01519:00000033000000000000000000000000
#01812:0000000000000013
#01815:13
#0181b:0000000000000013
#01818:13
#01813:00000033000000000000000000000000
#0181a:00000033000000000000000000000000
#01918:00000013
#01915:0000000000130013
#01912:13
#0191b:13
#01914:00000033000000000000000000000000
#01919:00000033000000000000000000000000
#0231b:13
#02315:0000130000130013
#02318:0000001300001300
#02415:0000000000000013
#02418:13
#0241b:00000013000000000000000000000000
#02515:00000013
#02518:00000013000000000000000000001300
#02512:0000000000130000
#0251b:13
#02618:0000000000000013
#02615:13
#02612:00000013000000000000000000000000
#03012:00000013000000000000000000001300
#03015:13
#03018:13
#0301b:00000013000000000000000000001300
#03118:00000013000000000000000013000000
#03115:00000013000000000000130000001300
#03112:13
#0311b:13
#00415:0000130000000013
#00418:0000001300000000
#0041b:23
#04815:00130013
#04818:0000001300000013
#0481b:0013000000130000
#04812:1313
#04912:1324
#04915:0013000000006400
#04918:00130000
#0491b:0000001300000000
#04913:000000000000006400000064
#04914:000000006464
#04715:0013000000130000
#04718:00131300
#04712:0000001300000000
#0471b:13000013
#05812:0013000000000000
#05815:0000130000000013
#05818:0000001300000000
#0581b:2313
#0581f:21
#05915:0000001300000000
#05918:00130000
#0591b:0013
#05912:00000014
#05916:0000000000000014
#05910:41
#0681b:00130000
#06815:0000001300000000
#06818:2600000000000013
#06812:26
#06918:0000000000000013
#06915:13
#0691b:00130000
#06912:0000001300000000
#07212:2300131300000000
#07218:0000131300000013
#0721b:23
#0731b:1300131300000000
#07315:0000131300000000
#07312:1300000000000023
#07318:0000000000000023
#00314:0014
#00618:0000130000000013
#00615:0000001300000000
#00612:23
#00812:0000130000000013
#0081b:2300001300000000
#0051b:13
#00515:0000000000130000
#00712:13
#00718:0000000000130000
#00918:13
#00915:0000000000130000
#0101b:0000130000000013
#01012:2300001300000000
#01115:13000023
#01118:0000000000130000
#01412:13
#01414:00000033000000000000000000000000
#02118:1300001300000000
#02115:00130000
#0211b:0000000000130000
#02018:00130000
#02012:2300000000130000
#02015:0000001300000000
#0201b:23
#02010:41
#02215:0000000000130000
#02212:2300001300000000
#0221b:00130000
#02712:13
#02715:00000013000000000000000000001300
#02718:00000013
#0271b:0000000000130000
#02818:13
#0281b:00000013000000000000000000000000
#02812:13
#02815:00000013000000000000000000000000
#02810:41
#02915:13000013
#02912:00000013000000000000000000000000
#0291b:13
#02918:00000013000000000000130000001300
#0331b:13
#03818:0013000000000000
#03812:00131300
#0381b:0000001300000013
#03815:23
#03915:00131300
#0391a:00000014
#03914:0000000000000014
#03918:0000001300000000
#04012:00141400
#04018:0000001400000000
#0401a:14000014
#04015:00000014
#0371a:00140000
#0371a:00140000
#03716:1414
#04119:14
#04114:14
#04113:00140000
#04118:00140000
#04112:0014
#04117:0014
#04218:0000000000130013
#0421b:0013
#04215:00000013
#04315:0013000000130013
#04318:00130013
#0431b:0000001300000000
#04312:13
#04415:0000000000130013
#04412:0013
#04418:00000013
#04410:41
#04515:00130000
#04512:0000001300000000
#04518:0013000000000000
#0451b:13
#04618:0013000000130000
#04615:00131300
#0461b:0000001300000000
#04612:13000013
#0601a:14140000
#06016:0000001400000000
#06012:0014
#0621b:0013000000000000
#06218:0000130000000013
#06215:0000001300000000
#06212:2313
#06318:0000001300000000
#06315:00130000
#06312:0013
#0631a:00000014
#06316:0000000000000014
#06412:24140000
#06416:0000001400000000
#0641a:0024
#07012:23130000
#07018:0000001300000000
#07015:0000000000000013
#0701b:23
#07115:0000000000000013
#07118:13
#07112:00130000
#0711b:0000001300000000
#0501f:11
#05012:64
#05714:53
#05719:53
#01258:0000001300000000
#0125b:63
#0325b:63
#03252:0053
#03355:00000013
#0335b:63
#03358:00000013
#03558:0013
#03452:0000000000000053
#0345b:0063
#0045b:1300000000130000
#00458:0000005300000000
#0585b:1363
#05855:0000000000000063
#06855:0000006300000000
#06858:16
#06852:1600000000130000
#00354:0054
#00356:00000014
#00655:0000006300000000
#00652:1300000000130000
#0085b:1300006300000000
#00858:0000000000130000
#0055b:63
#00558:0000001300000000
#00555:0000000000630000
#00752:53
#00758:0000000000530000
#00755:0000001300000000
#00958:53
#00955:0000000000630000
#0095b:0000001300000000
#01052:1300005300000000
#01055:0000000000130000
#01155:63000013
#01152:0000001300000000
#01358:53
#0135b:0000001300000000
#01452:53
#01455:0000001300000000
#0155b:63
#01558:0000001300000000
#01652:53
#01655:0000001300000000
#01658:53
#0165b:0000001300000000
#0175b:63
#01758:0000001300000000
#01755:63
#01752:0000001300000000
#01855:63
#01852:0000001300000000
#01858:53
#0185b:0000001300000000
#01952:53
#01955:0000001300000000
#0195b:63
#01958:0000001300000000
#02052:1300000000530000
#0205b:13
#02055:0000006300000000
#02255:0000000000630000
#02252:1300005300000000
#0215b:0000000000630000
#02158:0000005300000000
#02458:5300001300000000
#0245b:00000063000000000000000000000000
#0255b:6300001300000000
#02558:00000053000000000000000000000000
#02655:6300001300000000
#02652:00000053000000000000000000000000
#02752:5300001300000000
#02755:00000063000000000000000000000000
#02858:5300001300000000
#0285b:00000063000000000000000000000000
#02852:5300001300000000
#02855:00000063000000000000000000000000
#02955:6300001300000000
#02952:00000053000000000000000000000000
#0295b:6300001300000000
#02958:00000053000000000000000000000000
#03055:6300001300000000
#03052:00000053000000000000000000000000
#03058:5300001300000000
#0305b:00000063000000000000000000000000
#03152:5300001300000000
#03155:00000063000000000000000000000000
#0315b:6300001300000000
#03158:00000053000000000000000000000000
#03955:0013
#0385b:0000000000000063
#03852:0053
#0375a:00640014
#0375a:00640000
#03756:6454
#03652:14000054
#0365a:0014
#0415a:00000014
#04155:00000014
#04152:0054
#04157:0054
#05052:14
#0595b:0013
#0405a:14
#04052:0014
#0605a:14
#06052:0014
#06158:00000016
#06152:00000016
#06252:1353
#06258:0000000000000053
#06352:0013
#06955:1300000000130000
#06952:0000005300000000
#07052:13
#07058:0000005300000000
#0705b:1300000000130000
#07158:1300000000130000
#0715b:0000006300000000
#0725b:1300000000130000
#07252:1300005300000000
#07255:0000000000130000
#07258:0000005300000000
#0735b:0000006300000000
#07355:0000006300000000
#07352:0000000000000013
#07358:0000000000000013
#06452:14
#0645a:0014
#000380:14
#001380:24
#001341:14
#002341:24
#002380:14
#003380:24
#003341:1434
#003361:00000024
#004381:0000001300000000
#0043b1:0000000000230000
#0053b1:13
#005381:0000332300000000
#005351:0000000000130000
#005321:0000000000000033
#006321:23
#006351:0000001300000000
#006321:0000000000230000
#007321:13
#007351:0000332300000000
#007381:0000000000130000
#0073b1:0000000000000033
#0083b1:23
#0083b1:0000001300000000
#008381:0000000000230000
#009381:13
#0093b1:0000332300000000
#009351:0000000000130000
#009321:0000000000000033
#010321:23
#010321:0000001300000000
#010351:0000000000230000
#011351:13
#011321:0000332300000000
#0123b1:13
#012391:00000033000000000000000000000000
#012381:0000002300000000
#013381:13
#0133a1:00000033000000000000000000000000
#0133b1:0000002300000000
#014321:13
#014341:00000033000000000000000000000000
#014351:0000002300000000
#0153b1:13
#015391:00000033000000000000000000000000
#015381:0000002300000000
#016321:13
#016341:00000033000000000000000000000000
#016351:0000002300000000
#016380:13
#0163a0:00000033000000000000000000000000
#0163b0:0000002300000000
#0173b0:13
#017390:00000033000000000000000000000000
#017380:0000002300000000
#017351:13
#017331:00000033000000000000000000000000
#017321:0000002300000000
#018351:13
#018331:00000033000000000000000000000000
#018321:0000002300000000
#018380:13
#0183a0:00000033000000000000000000000000
#0183b0:0000002300000000
#019320:13
#019340:00000033000000000000000000000000
#019350:0000002300000000
#0193b1:13
#019391:00000033000000000000000000000000
#019381:0000002300000000
#020351:0000001300000023
#020321:0000000000330000
#021381:0000001300000023
#0213b1:0000000000330000
#022321:0000001300000023
#022351:0000000000330000
#024381:1300002300000000
#0243b1:00000033000000000000000000000000
#0253b1:1300002300000000
#025381:00000033000000000000000000000000
#026351:1300002300000000
#026321:00000033000000000000000000000000
#027321:1300002300000000
#027351:00000033000000000000000000000000
#028381:1300002300000000
#0283b1:00000033000000000000000000000000
#028320:1300002300000000
#028350:00000033000000000000000000000000
#029350:1300002300000000
#029320:00000033000000000000000000000000
#0293b1:1300002300000000
#029381:00000033000000000000000000000000
#030351:1300002300000000
#030321:00000033000000000000000000000000
#030380:1300002300000000
#0303b0:00000033000000000000000000000000
#031320:1300002300000000
#031350:00000033000000000000000000000000
#0313b1:1300002300000000
#031381:00000033000000000000000000000000
#0323b1:13
#032381:0023
#032320:0013
#033350:23
#0333b1:13
#033381:00003323
#033350:00001323
#0343b0:0013
#034380:00000023
#034320:0000000000000013
#035350:0023000000000000
#036320:00000014
#037360:34
#037320:00240000
#0373a1:00140024
#037361:0034
#038321:0013
#038351:00000023
#0383b1:0000000000000013
#039381:0023000000000000
#041321:0014
#041351:00000024
#041370:0014
#0413a0:00000024
#042320:13
#042350:00230000
#0443b0:13
#044380:00230000
#045380:0013
#0453b0:00000023
#051380:1323
#052350:1323
#053380:1323
#054340:13
#054350:0033
#055340:23
#055391:13
#055381:0033
#056391:33
#0563a1:0033
#057391:23
#056340:13
#056330:0033
#057340:23
#0583b0:0013
#058380:00000023
#058350:0000000000000013
#059320:0023000000000000
#060380:00000014
#061380:24
#061341:14240000
#061380:00160026
#061321:00001626
#062321:0013
#062351:00000023
#062381:0000000000000013
#0633b1:0023000000000000
#064341:00000014
#065341:24
#065380:14240000
#065321:0000160000003636
#067351:53
#068321:26
#065380:0000000016003636
#067380:53
#068380:26
#068350:0000001300000000
#068320:0000000000230000
#069320:0000001300000000
#069350:0000000000230000
#070380:0000001300000000
#0703b0:0000000000230000
#0713b0:0000001300000000
#071380:0000000000230000
#072320:0000001300000000
#072350:0000000000230000
#072381:0000001300000000
#0723b1:0000000000230000
#0733b1:0000001300003300
#073381:0000000000330023
#073350:0000001300003300
#073320:0000000000330023
#049920:0014
#049950:00000054
#050920:24
