This file was generated by Ched 2.7.0.0.
#TITLE ""
#ARTIST ""
#DESIGNER ""
#DIFFICULTY 0
#PLAYLEVEL
#SONGID ""
#WAVE ""
#WAVEOFFSET 0
#JACKET ""
#REQUEST "ticks_per_beat 480"
#00002: 4
#BPM01: 156
#00008: 01
#TIL00: ""
#VOLUME: ""
#HISPEED 00
#MEASUREHS 00
#01014:14
#01118:14
#01212:14
#0131a:14
#01414:14
#01518:14
#01612:14
#0171a:14
#01710:41
#0181a:14
#01912:14
#02012:14
#02118:14
#02214:14
#0231a:14
#02412:14
#03318:14
#03418:14
#03514:14
#03614:14
#03812:16
#03818:0016
#04218:16
#04212:0016
#04518:16
#04512:0016
#04510:41
#04618:1616
#04712:16
#04718:0016
#04812:1616
#04912:0016
#04918:26
#05018:16
#05012:0016
#05218:0016
#05318:0016
#05312:26
#05310:41
#05412:16
#05418:0016
#0571a:14
#0581a:14
#05914:14
#06014:14
#06118:14
#06218:14
#0291f:11
#02919:0034
#0091a:24
#00910:41
#03718:2626
#0371f:21
#03710:0041
#04112:2626
#02618:34
#02519:0034
#02713:0034
#02814:34
#02810:41
#0301a:34
#03212:34
#03113:0034
#0013a0:14
#0023a0:24
#003340:14
#004340:24
#005380:14
#006380:24
#007320:14
#008320:24
#0253a0:14
#025390:0034
#026380:3424
#027320:14
#027330:0034
#028340:3424
#029380:14
#029390:0034
#0303a0:3424
#031340:14
#031330:0034
#032320:3424
#039320:1626
#040380:1626
#043380:1626
#044320:1626
#051380:16
#052380:26
#055320:16
#056320:26
#063320:1400000000000024
