This file was generated by Ched 2.7.0.0.
#TITLE ""
#ARTIST ""
#DESIGNER ""
#DIFFICULTY 0
#PLAYLEVEL
#SONGID ""
#WAVE ""
#WAVEOFFSET 0
#JACKET ""
#REQUEST "ticks_per_beat 480"
#00002: 4
#BPM01: 156
#00008: 01
#TIL00: ""
#VOLUME: ""
#HISPEED 00
#MEASUREHS 00
#00112:13001300000013000000537300005373
#00116:1414001400000000
#00113:00000053
#00716:1414001400140000
#0071b:1313001300000000
#00718:00000026
#00712:0000000000000026
#0031b:13001300000013000000537300005373
#00316:1414001400000000
#0031a:00000053
#00512:13001300000013000000537300005373
#00516:1414001400000000
#00519:0000000000230023
#00513:00000053
#0091a:24140014
#00915:00000000140000130000000014000013
#00918:0000000013000013
#00912:0000000000140000
#00910:41
#0101a:00140000
#01015:00000000140000130000000000000000
#01018:13000000000000001300000000140014
#01012:0014000000001414
#01118:0013
#01116:00000000000000000000000000130013
#01115:00000000140000130000000000000000
#0111a:00140014
#01112:1400000000140000
#01215:0000001313000000
#01218:00000000000000130000000000140014
#0121a:1400000000140000
#01212:0000140000001414
#01217:00140000
#0171b:0013000013000000
#01718:0000130000000013
#01715:0000001300001300
#01710:41
#01812:14
#01818:0013001400000000
#0181b:00001313
#01816:0013
#01815:00000014000000000000000000000000
#01912:0013000013000000
#01915:0000130000000013
#01918:0000001300001300
#0211b:2300000000130000
#02118:00000013
#02115:0000000000000013
#02116:23
#02212:2400000000130000
#02215:00000013
#02218:0000000000000013
#02217:24
#0231b:0000000000130000
#02318:00000013
#02315:0000000000000013
#02313:25
#02319:25
#0241a:0000000000140000
#02412:2500000000000014
#02416:00000014
#02417:0015000000000000
#02419:25
#02615:00001300000000130000000000000000
#02618:00000013000013000000000000000000
#02612:6600130000140000
#0261a:5300000000000014
#02616:00000014
#0261b:0013
#02818:6613000013000000
#02812:13
#02810:41
#02815:00005353
#0291b:0000000000000013
#02915:00000013
#02918:0000000000130000
#0291f:11
#02912:25650000256500002500000000000000
#02919:25650000256500002500000000000000
#03018:00001300000000130000000000000000
#03015:00000013000013000000000000000000
#0301b:00130000
#0301a:0000000000140000
#03012:1300000013000014
#03016:00000014
#03418:0013000013001300
#03415:0000130000130000
#0341b:0000001300000000
#03412:0013
#03615:0013000014000000
#03618:00130000
#03612:0000001300002400
#03617:0000000000140000
#0361a:0014
#03817:0000001300000000
#03816:0013000000000000
#0381a:24
#03812:0000000000000024
#03712:1424
#03717:2424
#0371f:21
#03710:0041
#03917:13
#03912:00140014
#03916:0014
#04216:0000001300000000
#04217:0013000000000000
#04212:24
#0421a:0000000000000024
#04316:1314
#0431a:00140014
#04512:0000132300001300
#0451a:0014
#04516:0000001413001400
#04514:0000000000130000
#04518:0000000000140000
#04510:41
#0491a:2400000000000014
#04912:0000001400140000
#04914:00000000000000140000001400000000
#04916:0000141400000000
#04918:0000000000140000
#05015:0023232323001300
#05012:00000000000000000000000000000013
#0501b:00000000000000000000000000000013
#05018:00000000000000230000000023000000
#05219:0000130000130000
#05217:0000001300001300
#0521b:0013000013000000
#05216:0014000014000000
#05214:0000140000140000
#05212:0000001400000000
#05312:2400000000000014
#0531a:0000001400140000
#05318:00000000000000140000001400000000
#05316:0000141400000000
#05314:0000000000140000
#05310:41
#0541b:00000000000000000000000000000013
#05418:0023232323001300
#05412:00000000000000000000000000000013
#05415:00000000000000230000000023000000
#02017:00000014000000001300000000000000
#0201a:14
#02015:0013000000001300
#02014:0000001400000000
#02012:0013
#02018:0000000000000013
#04615:00132424
#04618:0000001300130000
#04612:0013000000000000
#0461b:0013000000000000
#0461a:00002424
#03316:00240014
#03516:00240014
#04018:0013000000000000
#04015:0000130000140000
#0401b:0000001300000000
#04012:0014
#04017:0014
#0401a:00000024
#0411a:1424
#04115:2424
#04415:0013000000000000
#04418:00130000
#04416:0000001300140000
#0441a:00000024
#04412:00000024
#04419:0024
#04413:0024
#0601a:0014000000000000
#06014:0014
#06013:0000000000140000
#06019:00140000
#06012:00000024
#05712:13000023
#05715:00231300
#05718:0013
#0571b:23
#05614:00131300
#05615:0000001300000000
#05613:0013000000130000
#05612:00000023
#05515:0013
#05518:0013
#0551b:00000023
#05819:0014000000140000
#05818:00141400
#05817:0000001400000000
#0581a:00000024
#0621b:12000052
#06213:12000052
#06218:0000005200000000
#0621a:0052000000520000
#06219:00525200
#06216:0000005200000000
#06214:0052000000520000
#06215:00525200
#05915:14
#0591a:14
#05912:0014
#05917:0024
#01312:24140014
#01318:00000000000000130000000000000013
#01315:0000000013000013
#0131a:0000000000140000
#01317:00140014
#01412:00140000
#01418:00000000000000130000000000000000
#01415:1313
#0141a:0014000000001414
#01414:00000000000000000000000000140014
#01417:00140000
#01515:0013
#01517:00000000140000000000000000130000
#01518:00000000000000130000000000000000
#01512:00140014
#0151a:1400000000140000
#0321a:00001424
#03212:66000013000000001400000024000000
#03214:0000000000140000
#03218:0000130000140000
#0321b:1300001300000000
#03215:00000000001300000000000000000000
#0471b:0000132300001300
#04712:0014
#04717:0013
#04716:0000001400001400
#04719:0000000000130000
#04714:0000000000140000
#0471a:24
#04818:00130000
#04815:0000001300130000
#0481b:0013000000000000
#04812:0013000024002400
#04817:00002424
#06117:14
#06112:14
#0611a:0014
#06115:0024
#02518:24000024000000000000130000001300
#02512:00260000260026002600000000000000
#02519:00000000000000000000005300000053
#0251a:00000053
#02715:0000000000130013
#02714:24000024000000000000005300000000
#02718:00260000260026002600000000000000
#02713:00000053
#03118:24000024000000000000130000001300
#03112:00260000260026002600000000000000
#03119:00000000000000000000005300000000
#0311a:00000053
#06312:001c00000000000000000000000000000000000000000000
#06317:0000000000000052
#00619:0023002300230023
#00613:53535353
#00612:00005373000053730000537300005300
#01618:24640000000024640000000000000000
#01614:00000024640000000024640000000000
#01612:24000000000024000000000000250025
#0161a:00000024000000000024000000000000
#01619:0000000000002525
#05112:26
#05118:26
#00213:53535353
#00212:00005373000053730000537300005300
#0041a:53535353
#0041b:00005373000053730000537300005300
#00752:0000000000000036
#00758:00000046
#0095a:14
#02952:0015
#02959:0015
#0375a:00140014
#03757:5454
#03755:00140014
#03752:5454
#03857:0000001300000000
#03852:0000001300000000
#03856:0063000000000000
#03957:53
#03952:00540054
#03956:0054
#04256:0000001300000000
#0425b:0000001300000000
#04257:0053000000000000
#04356:6364
#0435a:00640064
#0455a:0024
#04556:0000005423002400
#04558:0000000000540014
#04554:0000000000530013
#04552:1400005300002300
#0495a:0000000000000014
#04954:00000000000000540000005400000000
#04952:0000002400240014
#05055:00000053
#05052:00000000000000000000000000000023
#0505b:00000000000000000000000000000023
#05058:00000053
#05152:16
#05158:16
#05352:1400000000000014
#0535a:0000002400240014
#05358:00000000000000640000006400000000
#0175b:0053
#0185b:00000053
#01856:0053
#01952:0063
#02057:0063
#04155:6464
#0415a:6464
#04152:00140014
#04157:00140014
#02257:0000001400000000
#02252:0000001400000000
#02353:0000001500000000
#02359:0000001500000000
#0215b:0000001300000000
#02156:0000001300000000
#05458:00000063
#05455:00000053
#05452:00000000000000000000000000000023
#0545b:00000000000000000000000000000023
#0125a:14
#05558:00136300
#0555b:00000013
#05555:0053
#05752:63000013
#05755:00135300
#05758:0053
#0575b:53
#0565b:00000013
#05852:00000014
#06058:00000014
#05955:54000014
#0595a:54000014
#05952:0064
#05957:00145400
#0625b:00000012
#06253:00000012
#01152:14
#0155a:14
#01352:14
#02452:0000001500000000
#02459:0000001500000000
#0325a:00005444
#03252:00006434
#03254:0000000000240000
#03258:0000000000240000
#0325b:53
#04752:0024
#04757:0023
#04756:0000006400002400
#04759:0000000000630013
#0475b:0000006300002300
#04754:0000000000640014
#06157:64000014
#06152:64000014
#0615a:0054
#06155:00146400
#00152:00000000000000000000002300000023
#00153:00000053
#00252:00000023000000230000002300000000
#00253:53535353
#0035a:00000063
#0035b:00000000000000000000002300000023
#0045a:63636363
#0045b:00000023000000230000002300000000
#00553:00000053
#00552:00000000000000000000002300000023
#00653:53535353
#00652:00000023000000230000002300000000
#04056:14
#0405b:13
#04452:13
#04456:14
#06352:005c00000000000000000000000000000000000000000000
#04655:00000014
#0465a:00000014
#04857:00000014
#04852:00000014
#0173b0:0013
#017380:00000023
#018360:0013
#019320:23
#0183b1:00000013
#019371:23
#019321:0013
#019351:00000023
#020371:0013
#0203b1:00000023
#0213b1:00000013000023000000000000000000
#021360:0000132300000000
#022320:00000014000024000000000000000000
#022371:0000142400000000
#023391:00000015000025000000000000000000
#023330:0000152500000000
#024320:00000015000025000000000000000000
#024391:0000152500000000
#025321:0016
#026321:26
#027381:0016
#028381:26
#028351:00132300
#031321:0016
#032321:26
#0323b0:13
#032380:00000023000000000000000000000000
#032320:00001424
#032340:0000000000540000
#0323a1:00001424
#032381:0000000000540000
#036321:00000014
#037321:34
#037351:0054240000000000
#037370:14
#0373a0:0054240000000000
#037320:0014
#037350:0000000000542400
#037371:0014
#0373a1:0000000000542400
#038361:0013000000000000
#038321:0000002300000000
#038371:0000000000130000
#039371:33
#0393b1:00530000
#0403b1:23
#038320:0000000000000014
#039320:00340034
#039360:0034
#040360:24
#0403a0:00000014
#0413a0:34
#041370:0054240000000000
#041351:14
#041321:0054240000000000
#0413a1:0014
#041371:0000000000542400
#041350:0014
#041320:0000000000542400
#042370:0013000000000000
#0423b0:0000002300000000
#042360:0000000000130000
#043360:33
#043320:00530000
#044320:23
#0423a1:0000000000000014
#0433a1:00340034
#043361:0034
#044361:24
#044321:00000014
#045321:24
#045360:1400003400005400
#0453a0:0054
#045380:0000000000340024
#045321:0000001300005300
#045361:0053
#045341:0000000000330023
#047361:1400003400005400
#047321:0054
#047341:0000000000340024
#0473b0:0000001300005300
#047370:0053
#047390:0000000000330023
#049360:14
#049340:00340000000000000000000000000000000000000000000000000000540000000000000000000000000000005400000000000000000000000000000000000000
#049320:0034000000000000000000005400000054000000540000005400000024000000
#050350:00001333
#050320:00000000000000000000000000530053
#051320:26
#050381:00000013
#0503b1:00000000000000000000000000530053
#051381:26
#052321:00000014
#053321:24
#053360:14
#053380:00340000000000000000000000000000000000000000000000000000540000000000000000000000000000005400000000000000000000000000000000000000
#0533a0:0034000000000000000000005400000054000000540000005400000024000000
#054380:00001333
#0543b0:00000000000000000000000000530053
#055380:33230000
#054351:00000013
#054321:00000000000000000000000000530053
#055351:3353
#055321:00000000000000000053000000000000
#056321:23
#055380:0013
#0553b0:00000000000000000053000023000000
#0563b0:13000023
#056321:00000013
#057321:33
#057351:00530000230000000000000000000000
#0573b0:13000000000000000053000000000000
#057380:00530000000000005300000000000000
#0583b0:23
#057351:0013
#057321:00000000000000000053000023000000
#058321:14000024
#0583a0:00000014
#0593a0:34
#059370:00540000240000000000000000000000
#059351:14000000000000000054000024000000
#059321:00540000000000003400000000000000
#059370:0014
#0593a0:00000000000000000054000024000000
#060340:1400002400000000
#060381:0000001400002400
#060320:00000014
#061320:34
#061350:00540000240000000000000000000000
#061371:14000000000000000054000024000000
#0613a1:00540000000000003400000000000000
#061350:0014
#061320:00000000000000000054000024000000
#063340:18
#063320:005c00000000000000000000000000000000000000000000
#063370:0000000000000022
#001920:00000000000013000000005300530053
#001930:00000053
#002930:53535353
#002920:000000000000000000000000000000000000000000000000000000000000000000000000000000000000000000000000000000000000000000000000000000000000000000000000000000000000000000000000000000000000000000000000000000000000000000000000000000000000000000000000530000000000000000000000000000000000000000000000000000000000000000000000000000000000000000000000000000000000000000000000000000000000000000000000000000000000000000000000000000000000000000000000000000000000000000000000000000000000000000000000000000000000000000000000000000000000000000000000000000000000000000000000000000000000000000000000000000000000000000000000000000000000000000000000000000000000000000000000000000000000000000000000000000000000000000000000000000000000000000000000530000000000000000000000000000000000000000000000000000000000000000000000000000000000000000000000000000000000000000000000000000000000000000000000000000000000000000000000000000000000000000000000000000000000000000000000000000000000000000000000000000000000000000000000000000000000000000000000000000000000000000000000000000000000000000000000000000000000000000000000000000000000000000000000000000000000000000000000000000000000000000000000000000000000000000000000000000000000000000000000530000000000000000000000000000000000000000000000000000000000000000000000000000000000000000000000000000000000000000000000000000000000000000000000000000000000000000000000000000000000000000000000000000000000000000000000000000000000000000000000000000000000000000000000000000000000000000000000000000000000000000000000000000000000000000000000000000000000000000000000000000000000000000000000000000000000000000000000000000000000000000000000000000000000000000000000000000000000000000000000530000000000000000000000000000000000000000000000000000000000000000000000000000000000000000000000000000000000000000000000000000000000000000000000000000000000000000000000000000000000000000000000000000000000000000000000000000000000000000000000000000000000000000000000000000000000000000000000000000000000000000000000000000000000000000000000000000000000000000000000000000000000000000000000000000000000000000000000000000000000000000000000000000000000000000000000000000000000000000000000530000000000000000000000000000000000000000000000000000000000000000000000000000000000000000000000000000000000000000000000000000000000000000000000000000000000000000000000000000000000000000000000000000000000000000000000000000000000000000000000000000000000000000000000000000000000000000000000000000000000000000000000000000000000000000000000000000000000000000000000000000000000000000000000000000000000000000000000000000000000000000000000000000000000000000000000000000000000000000000000530000000000000000000000000000000000000000000000000000000000000000000000000000000000000000000000000000000000000000000000000000000000000000000000000000000000000000000000000000000000000000000000000000000000000000000000000000000000000000000000000000000000000000000000000000000000000000000000000000000000000000000000000000000000000000000000000000000000000000000000000000000000000000000000000000000000000000000000000000000000000000000000000000000000000000000000000000000000000000000000530000000000000000000000000000000000000000000000000000000000000000000000000000000000000000000000000000000000000000000000000000000000000000000000000000000000000000000000000000000000000000000000000000000000000000000000000000000000000000535353230000000000000000000000000000000000000000000000000000000000000000000000000000000000000000000000000000000000000000000000000000000000000000000000000000000000000000000000000000000000000000000000000000000000000000000000000000000000000000000000000000000000000000000000000000000000000000000000000000000000000000000000000000000000000000000000000000000000000000000000000000000000000000000000000000000000000000000000000000000000000000000000000000000000000000000000000000000000000000000000
#0039b0:00000000000013000000005300530053
#0039a0:00000053
#0049a0:53535353
#0049b0:000000000000000000000000000000000000000000000000000000000000000000000000000000000000000000000000000000000000000000000000000000000000000000000000000000000000000000000000000000000000000000000000000000000000000000000000000000000000000000000000530000000000000000000000000000000000000000000000000000000000000000000000000000000000000000000000000000000000000000000000000000000000000000000000000000000000000000000000000000000000000000000000000000000000000000000000000000000000000000000000000000000000000000000000000000000000000000000000000000000000000000000000000000000000000000000000000000000000000000000000000000000000000000000000000000000000000000000000000000000000000000000000000000000000000000000000000000000000000000000000530000000000000000000000000000000000000000000000000000000000000000000000000000000000000000000000000000000000000000000000000000000000000000000000000000000000000000000000000000000000000000000000000000000000000000000000000000000000000000000000000000000000000000000000000000000000000000000000000000000000000000000000000000000000000000000000000000000000000000000000000000000000000000000000000000000000000000000000000000000000000000000000000000000000000000000000000000000000000000000000530000000000000000000000000000000000000000000000000000000000000000000000000000000000000000000000000000000000000000000000000000000000000000000000000000000000000000000000000000000000000000000000000000000000000000000000000000000000000000000000000000000000000000000000000000000000000000000000000000000000000000000000000000000000000000000000000000000000000000000000000000000000000000000000000000000000000000000000000000000000000000000000000000000000000000000000000000000000000000000000530000000000000000000000000000000000000000000000000000000000000000000000000000000000000000000000000000000000000000000000000000000000000000000000000000000000000000000000000000000000000000000000000000000000000000000000000000000000000000000000000000000000000000000000000000000000000000000000000000000000000000000000000000000000000000000000000000000000000000000000000000000000000000000000000000000000000000000000000000000000000000000000000000000000000000000000000000000000000000000000530000000000000000000000000000000000000000000000000000000000000000000000000000000000000000000000000000000000000000000000000000000000000000000000000000000000000000000000000000000000000000000000000000000000000000000000000000000000000000000000000000000000000000000000000000000000000000000000000000000000000000000000000000000000000000000000000000000000000000000000000000000000000000000000000000000000000000000000000000000000000000000000000000000000000000000000000000000000000000000000530000000000000000000000000000000000000000000000000000000000000000000000000000000000000000000000000000000000000000000000000000000000000000000000000000000000000000000000000000000000000000000000000000000000000000000000000000000000000000000000000000000000000000000000000000000000000000000000000000000000000000000000000000000000000000000000000000000000000000000000000000000000000000000000000000000000000000000000000000000000000000000000000000000000000000000000000000000000000000000000530000000000000000000000000000000000000000000000000000000000000000000000000000000000000000000000000000000000000000000000000000000000000000000000000000000000000000000000000000000000000000000000000000000000000000000000000000000000000000535353230000000000000000000000000000000000000000000000000000000000000000000000000000000000000000000000000000000000000000000000000000000000000000000000000000000000000000000000000000000000000000000000000000000000000000000000000000000000000000000000000000000000000000000000000000000000000000000000000000000000000000000000000000000000000000000000000000000000000000000000000000000000000000000000000000000000000000000000000000000000000000000000000000000000000000000000000000000000000000000000
#005920:00000000000013000000005300530053
#005930:00000053
#006930:53535353
#006920:000000000000000000000000000000000000000000000000000000000000000000000000000000000000000000000000000000000000000000000000000000000000000000000000000000000000000000000000000000000000000000000000000000000000000000000000000000000000000000000000530000000000000000000000000000000000000000000000000000000000000000000000000000000000000000000000000000000000000000000000000000000000000000000000000000000000000000000000000000000000000000000000000000000000000000000000000000000000000000000000000000000000000000000000000000000000000000000000000000000000000000000000000000000000000000000000000000000000000000000000000000000000000000000000000000000000000000000000000000000000000000000000000000000000000000000000000000000000000000000000530000000000000000000000000000000000000000000000000000000000000000000000000000000000000000000000000000000000000000000000000000000000000000000000000000000000000000000000000000000000000000000000000000000000000000000000000000000000000000000000000000000000000000000000000000000000000000000000000000000000000000000000000000000000000000000000000000000000000000000000000000000000000000000000000000000000000000000000000000000000000000000000000000000000000000000000000000000000000000000000530000000000000000000000000000000000000000000000000000000000000000000000000000000000000000000000000000000000000000000000000000000000000000000000000000000000000000000000000000000000000000000000000000000000000000000000000000000000000000000000000000000000000000000000000000000000000000000000000000000000000000000000000000000000000000000000000000000000000000000000000000000000000000000000000000000000000000000000000000000000000000000000000000000000000000000000000000000000000000000000530000000000000000000000000000000000000000000000000000000000000000000000000000000000000000000000000000000000000000000000000000000000000000000000000000000000000000000000000000000000000000000000000000000000000000000000000000000000000000000000000000000000000000000000000000000000000000000000000000000000000000000000000000000000000000000000000000000000000000000000000000000000000000000000000000000000000000000000000000000000000000000000000000000000000000000000000000000000000000000000530000000000000000000000000000000000000000000000000000000000000000000000000000000000000000000000000000000000000000000000000000000000000000000000000000000000000000000000000000000000000000000000000000000000000000000000000000000000000000000000000000000000000000000000000000000000000000000000000000000000000000000000000000000000000000000000000000000000000000000000000000000000000000000000000000000000000000000000000000000000000000000000000000000000000000000000000000000000000000000000530000000000000000000000000000000000000000000000000000000000000000000000000000000000000000000000000000000000000000000000000000000000000000000000000000000000000000000000000000000000000000000000000000000000000000000000000000000000000000000000000000000000000000000000000000000000000000000000000000000000000000000000000000000000000000000000000000000000000000000000000000000000000000000000000000000000000000000000000000000000000000000000000000000000000000000000000000000000000000000000530000000000000000000000000000000000000000000000000000000000000000000000000000000000000000000000000000000000000000000000000000000000000000000000000000000000000000000000000000000000000000000000000000000000000000000000000000000000000000535353230000000000000000000000000000000000000000000000000000000000000000000000000000000000000000000000000000000000000000000000000000000000000000000000000000000000000000000000000000000000000000000000000000000000000000000000000000000000000000000000000000000000000000000000000000000000000000000000000000000000000000000000000000000000000000000000000000000000000000000000000000000000000000000000000000000000000000000000000000000000000000000000000000000000000000000000000000000000000000000000
#016980:140000000000000000000000000000000000000000000000000000000000000000000000000000000000000000000000000000000000000000000000000000000000000000000000000000000000000000000000000000000000000000000000000000000000000000000000000000000000000000005454240000000000000000000000000000000000000000000000000000000000000000000000000000000000000000000000000000000000000000000000000000000000000000000000000000000000000000000000000000000000000000000000000000000000000000000000000000000000000000000000000000000000000000000000000000000000000000000000000000000000000000000000000000000000000000000000000000000000000000000000000000000000000000000000000000000000000000000000000000000000000000000000000000000000000000000000000000000000000000000000000000000000000000000000000000000000000000000000000000000000000000000000000000000000000000000000000000000000000000000000000000000000000000000000000000000000000000000000000000000000000000000000000000000000000000000000000000000000000000000000000000000000000000000000000000000000000000000000000000000000000000000000000000000000000000000000000000000000000000000000000000000000000000000000000000000000000000000000000000000000000000000000000000000000000000000000000000000000000000000000000000000000000000000000000000000000000000000000000000000000000000000000000000000000000000000000000000000000000000000000000000000000000000000000000000000000000000000000000000000000000000000000000000000000000000000000000000000000000000000000000000000000000000000000000000000000000000000000000000000000000000000000000000000000000000000000000000000000000000000000000000000000000000000000000000000000000000000000000000000000000000000000000000000000000000000000000000000000000000000000000000000000000000000000000000000000000000000000000000000000000000000000000000000000000000000000000000000000000000000000000000000000000000000000000000000000000000000000000000000000000000000000000000000000000000000000000000000000000000000000000000000000000000000000000000000000000000000000000000000000000000000000000000000000000000000000000000000000000000000000000000000000000000000000000000000000000000000000000000000000000000000000000000000000000000000000000000000000000000000000000000000000000000000000000000000000000000000000000000000000000000000000000000000000000000000000000000000000000000000000000000000000000000000000000000000000000000000000000000000000000000000000000000000000000000000000000000000000000000000000000000000000000000000000000000000000000000000000000000000000000000000000000000000000000000000000000000000000000000000000000000000000000000000000000000000000000000000000000000000000000000000000000000000000000000000000000000000000000000000000000000000000000000000000000000000000000000000000000000000000000000000000000000000000000000000000000000000000000000000000000000000000000000000000000000000000000000000000000000000000000000000000000000000000000000000000000000000000000000000000000000000000000000000000000000000000000000000000000000000000000000000000000000000000000000000000000000000000000000000000000000000000000000000000000000000000000000000000000000000000000000000000000000000000000000000000000000000000000000000000000000000000000000000000000000000000000000000000000000000000000000000000000000000000000000000000000000000000000000000000000000000000000000000000000000000000000000000000000000000000000000000000000000000000000000000000000000000000000000000000000000000000000000000000000000000000000000000000000000000000000000000000000000000000000000000000000000000000000000000000000000000000000000000000000000000000000000000000000000000000000000000000000000000000000000000000000000000000000000000000000000000000000000000000000000000000000000000000000000000000000000000000000000000000000000000000000000000000000000000000000000000000000000000000000000000000000000000000000000000000000000000000000000000000000000000000000000000000000000000000
#016940:000000000000000000000000000000000000000000000000000000000000000000000000000000000000000000000000000000000000000000000000000000000000000000000000000000000000000000000000000000000000000000000000000000000000000000000000000000000000000000000000000000000000000000000000000000000000000000000000000000000000000000000000000000000000000000000000000000000000000000000000000000000000000000000000000000000000000000000000000000000000000000000000000000000000000000000000000000000000000000000000000000000000000000000000000000000000000000000000000000000000000000000000000000000000000000000000000000000000000000000000000000000000000000000000000000000000000000000000000000000000000000000000000000000000000000000000000000000000000000000000140000000000000000000000000000000000000000000000000000000000000000000000000000000000000000000000000000000000000000000000000000000000000000000000000000000000000000000000000000000000000000000000000000000000000000000000000000000000000000005454240000000000000000000000000000000000000000000000000000000000000000000000000000000000000000000000000000000000000000000000000000000000000000000000000000000000000000000000000000000000000000000000000000000000000000000000000000000000000000000000000000000000000000000000000000000000000000000000000000000000000000000000000000000000000000000000000000000000000000000000000000000000000000000000000000000000000000000000000000000000000000000000000000000000000000000000000000000000000000000000000000000000000000000000000000000000000000000000000000000000000000000000000000000000000000000000000000000000000000000000000000000000000000000000000000000000000000000000000000000000000000000000000000000000000000000000000000000000000000000000000000000000000000000000000000000000000000000000000000000000000000000000000000000000000000000000000000000000000000000000000000000000000000000000000000000000000000000000000000000000000000000000000000000000000000000000000000000000000000000000000000000000000000000000000000000000000000000000000000000000000000000000000000000000000000000000000000000000000000000000000000000000000000000000000000000000000000000000000000000000000000000000000000000000000000000000000000000000000000000000000000000000000000000000000000000000000000000000000000000000000000000000000000000000000000000000000000000000000000000000000000000000000000000000000000000000000000000000000000000000000000000000000000000000000000000000000000000000000000000000000000000000000000000000000000000000000000000000000000000000000000000000000000000000000000000000000000000000000000000000000000000000000000000000000000000000000000000000000000000000000000000000000000000000000000000000000000000000000000000000000000000000000000000000000000000000000000000000000000000000000000000000000000000000000000000000000000000000000000000000000000000000000000000000000000000000000000000000000000000000000000000000000000000000000000000000000000000000000000000000000000000000000000000000000000000000000000000000000000000000000000000000000000000000000000000000000000000000000000000000000000000000000000000000000000000000000000000000000000000000000000000000000000000000000000000000000000000000000000000000000000000000000000000000000000000000000000000000000000000000000000000000000000000000000000000000000000000000000000000000000000000000000000000000000000000000000000000000000000000000000000000000000000000000000000000000000000000000000000000000000000000000000000000000000000000000000000000000000000000000000000000000000000000000000000000000000000000000000000000000000000000000000000000000000000000000000000000000000000000000000000000000000000000000000000000000000000000000000000000000000000000000000000000000000000000000000000000000000000000000000000000000000000000000000000000000000000000000000000000000000000000000000000000000000000000000000000000000000000000000000000000000000000000000000000000000000000000000000000000000
#016980:000000000000000000000000000000000000000000000000000000000000000000000000000000000000000000000000000000000000000000000000000000000000000000000000000000000000000000000000000000000000000000000000000000000000000000000000000000000000000000000000000000000000000000000000000000000000000000000000000000000000000000000000000000000000000000000000000000000000000000000000000000000000000000000000000000000000000000000000000000000000000000000000000000000000000000000000000000000000000000000000000000000000000000000000000000000000000000000000000000000000000000000000000000000000000000000000000000000000000000000000000000000000000000000000000000000000000000000000000000000000000000000000000000000000000000000000000000000000000000000000000000000000000000000000000000000000000000000000000000000000000000000000000000000000000000000000000000000000000000000000000000000000000000000000000000000000000000000000000000000000000000000000000000000000000000000000000000000000000000000000000000000000000000000000000000000000000000000000000000000000000000000000000000000000000000000000000000000000000000000000000000000000000000000000000000000000000000000000000000000000000000000000000000000000000000000000000000000000000000000000000000000000000000000000000000000000000000000000000000000000000000000000000000000000000000000000000000000000000000000000000000000000000000000000000000000000000000000000000000000000000000000000000000000000000000000000000000000000000000000000140000000000000000000000000000000000000000000000000000000000000000000000000000000000000000000000000000000000000000000000000000000000000000000000000000000000000000000000000000000000000000000000000000000000000000000000000000000000000000005454240000000000000000000000000000000000000000000000000000000000000000000000000000000000000000000000000000000000000000000000000000000000000000000000000000000000000000000000000000000000000000000000000000000000000000000000000000000000000000000000000000000000000000000000000000000000000000000000000000000000000000000000000000000000000000000000000000000000000000000000000000000000000000000000000000000000000000000000000000000000000000000000000000000000000000000000000000000000000000000000000000000000000000000000000000000000000000000000000000000000000000000000000000000000000000000000000000000000000000000000000000000000000000000000000000000000000000000000000000000000000000000000000000000000000000000000000000000000000000000000000000000000000000000000000000000000000000000000000000000000000000000000000000000000000000000000000000000000000000000000000000000000000000000000000000000000000000000000000000000000000000000000000000000000000000000000000000000000000000000000000000000000000000000000000000000000000000000000000000000000000000000000000000000000000000000000000000000000000000000000000000000000000000000000000000000000000000000000000000000000000000000000000000000000000000000000000000000000000000000000000000000000000000000000000000000000000000000000000000000000000000000000000000000000000000000000000000000000000000000000000000000000000000000000000000000000000000000000000000000000000000000000000000000000000000000000000000000000000000000000000000000000000000000000000000000000000000000000000000000000000000000000000000000000000000000000000000000000000000000000000000000000000000000000000000000000000000000000000000000000000000000000000000000000000000000000000000000000000000000000000000000000000000000000000000000000000000000000000000000000000000000000000000000000000000000000000000000000000000000000000000000000000000000000000000000000000000000000000000000000000000000000000000000000000000000000000000000000000000000000000000000000000000000000000000000000000000000000000000000000000000000000000000000000000000000000000000000000000000000000000000000000000000000000000000000000000000000000000000000000000000000000000000000000000000000000000000000000000000000000
#016940:000000000000000000000000000000000000000000000000000000000000000000000000000000000000000000000000000000000000000000000000000000000000000000000000000000000000000000000000000000000000000000000000000000000000000000000000000000000000000000000000000000000000000000000000000000000000000000000000000000000000000000000000000000000000000000000000000000000000000000000000000000000000000000000000000000000000000000000000000000000000000000000000000000000000000000000000000000000000000000000000000000000000000000000000000000000000000000000000000000000000000000000000000000000000000000000000000000000000000000000000000000000000000000000000000000000000000000000000000000000000000000000000000000000000000000000000000000000000000000000000000000000000000000000000000000000000000000000000000000000000000000000000000000000000000000000000000000000000000000000000000000000000000000000000000000000000000000000000000000000000000000000000000000000000000000000000000000000000000000000000000000000000000000000000000000000000000000000000000000000000000000000000000000000000000000000000000000000000000000000000000000000000000000000000000000000000000000000000000000000000000000000000000000000000000000000000000000000000000000000000000000000000000000000000000000000000000000000000000000000000000000000000000000000000000000000000000000000000000000000000000000000000000000000000000000000000000000000000000000000000000000000000000000000000000000000000000000000000000000000000000000000000000000000000000000000000000000000000000000000000000000000000000000000000000000000000000000000000000000000000000000000000000000000000000000000000000000000000000000000000000000000000000000000000000000000000000000000000000000000000000000000000000000000000000000000000000000000000000000000000000000000000000000000000000000000000000000000000000000000000000000000000000000000000000000000000000000000000000000000000000000000000000000000000000000000000000000000000000000000000000000000000000000000000000000000000000000000000000000000000000000000000000000000000000000000000000000000000000000000000000000000000000000000000000000000000000000000000000000000000000000000000000000000000000000000000000000000000000000000000140000000000000000000000000000000000000000000000000000000000000000000000000000000000000000000000000000000000000000000000000000000000000000000000000000000000000000000000000000000000000000000000000000000000000000000000000000000000000000005454240000000000000000000000000000000000000000000000000000000000000000000000000000000000000000000000000000000000000000000000000000000000000000000000000000000000000000000000000000000000000000000000000000000000000000000000000000000000000000000000000000000000000000000000000000000000000000000000000000000000000000000000000000000000000000000000000000000000000000000000000000000000000000000000000000000000000000000000000000000000000000000000000000000000000000000000000000000000000000000000000000000000000000000000000000000000000000000000000000000000000000000000000000000000000000000000000000000000000000000000000000000000000000000000000000000000000000000000000000000000000000000000000000000000000000000000000000000000000000000000000000000000000000000000000000000000000000000000000000000000000000000000000000000000000000000000000000000000000000000000000000000000000000000000000000000000000000000000000000000000000000000000000000000000000000000000000000000000000000000000000000000000000000000000000000000000000000000000000000000000000000000000000000000000000000000000000000000000000000000000000000000000000000000000000000000000000000000000000000000000000000000000000000000000000000000000000000000000000000000000000000000000000000000000000000000000000000000000000000000000000000000000000000000000000000000000000000000000000000000000000000000000000000000000000000000000000000000000000000000000000000000000000000000000000000000000000000000000000000000000
#025980:0000000000130000
#0259a0:00000023
#025980:0000000000000013
#0269a0:23
#027950:0000000000130000
#027930:00000023
#028950:000000000000000000000000000000000000000000000000000000000000000000000000000000000000000000000000000000000000000000000000000000000000000000000000000000000000000000000000000000000000000000000000000000000000000000000000000000000000000000000000000000000000000000000000000000000000000000000000000000000000000000000000000000000000000000000000000000000000000000000000000000000000000000000000000000000000000000000000000000000000000000000000000000000000000000000000000000000000000000000000000000000000000000000000000000000000000000000000000000000000000000000000000000000000000000000000000000000000000000000000000000000000000000000000000000000000000000000000000000000000000000000000000000000000000000000000000000000000000000000000000000000000000000000000000000000000000000000000000000000000000000000000000000000000000000000000000000000000000000000000000000000000000000000000000000000000000000000000000000000000000000000000000000000000000000000000000000000000000000000000000000000000000000000000000000000000000000000000000000000000000000000000000000000000000000000000000000000000000000000000000000000000000000000000000000000000000000000000000000000000000000000000000000000000000000000000000000000000000000000000000000000000000000000000000000000000000000000000000000000000000000000000000000000000000000000000000000000000000000000000000000000000000000000000000000000000000000000000000000000000000000000000000000000000000000000000000000000000000000000000000000000000000000000000000000000000000000000000000000000000000000000000000000000000000000000000000000000000000000000000000000000000000000000000000000000000000000000000000000000000000000000000000000000000000000000000000000000000000000000000000000000000000000000000000000000000000000000000000000000000000000000000000000000000000000000000000000000000000000000000000000000000000000000000000000000000000000000000000000000000000000000000000000000000000000000000000000000000000000000000130000000000000000000000000000000000000000000000000000000000000000000000000000000000000000000000000000000000000000000000000000000000000000000000000000000000000000000000000000000000000000000000000000000000000000000000000000000000000000000000000000000000000000000000000000000000000000000000000000000000000000000000000000000000000000000000000000000000000000000000000000000000000000000000000000000000000000000000000000000000000000000000000000000000000000000000000000000000000000000000000000000000000000000000000000000000000000000000000000000000000000000000000000000000000000000000000000000000000000000000000000000000000000000000000000000000000000000000000000000000000000000000000000000000000000000000000000000000000000000000000000000000000000000000000000000000000000000000000000000000000000000000000000000000000000000000000000000000000000000000000000000000000000000000000000000000000000000000000000000000000000000000000000000000000000000000000000000000000000005353230000000000000000000000000000000000000000000000000000000000000000000000000000000000000000000000000000000000000000000000000000000000000000000000000000000000000000000000000000000000000000000000000000000000000000000000000000000000000000000000000000000000000000000000000000000000000000000000000000000000000000000000000000000000000000000000000000000000000000000000000000000000000000000000000000000000000000000000000000000000000000000000000000000000000000000000000000000000000000000000000000000000000000000000000000000000000000000000000000000000000000000000000000000000000000000000000000000000000000000000000000000000000000000000000000000000000000000000000000000000000000000000000000000000000000000000000000000000000000000000000000000000000000000000000000000000000000000000000000000000000000000000000000000000000000000000000000000000000000000000000000000000000000000000000000000000000000000000000000000000000000000000000000000000000000000000000000000000000000000000
#029920:15250000000000000000000000000000
#029991:15250000000000000000000000000000
#029921:00000000152500000000000000000000
#029990:00000000152500000000000000000000
#031980:0000000000130000
#0319a0:00000023
#0629b0:12000022
#062980:0000005200000000
#062931:12000022
#062961:0000005200000000
