This file was generated by Ched 2.7.0.0.
#TITLE ""
#ARTIST ""
#DESIGNER ""
#DIFFICULTY 0
#PLAYLEVEL
#SONGID ""
#WAVE ""
#WAVEOFFSET 0
#JACKET ""
#REQUEST "ticks_per_beat 480"
#00002: 4
#BPM01: 156
#00008: 01
#TIL00: ""
#VOLUME: ""
#HISPEED 00
#MEASUREHS 00
#0291f:11
#02918:26262600
#00618:00140014
#00518:00140014
#00414:00140014
#00314:00140014
#0021a:00140014
#0011a:00140014
#00114:14
#06118:00000016
#06112:00160000
#06018:00140014
#06014:0014
#05814:00140014
#05818:0014
#05718:00000016
#05712:00160000
#05618:00140014
#05614:0014
#05416:00140015
#05412:14
#0541a:0024
#05316:00140014
#0531a:0014
#05312:24
#05310:41
#0521a:14
#05216:0014
#05016:00140000
#0501a:14
#05015:00000015
#05012:0024
#04916:00140014
#04912:0014
#0491a:24
#04814:0014
#04818:00140014
#04812:00140014
#0481a:0014
#04718:0000000000140000
#0471a:0000001400000000
#04618:0014
#04614:00140014
#0461a:00140014
#04612:0014
#04514:0000000000140000
#04512:0000001400000000
#04510:41
#04419:15
#04417:0000001500000000
#04312:14
#04317:00250015
#04319:0015
#0421a:00000014
#04214:0014
#04218:00140000
#04212:14
#04019:15
#04017:0000001500000000
#03912:14
#03917:00250015
#03919:0015
#0381a:00000014
#03814:0014
#03818:00140000
#03812:14
#03512:00000014
#0351a:00240000
#0321a:14
#03218:00340000
#03217:0034
#03018:00140014
#03014:1414
#02814:00140014
#02818:1414
#02810:41
#02414:14
#02412:0000001400000000
#02413:00000034000000000000000000000000
#0231a:14
#02319:00000034000000000000000000000000
#02214:14
#02213:00000034000000000000000000000000
#0211a:14
#02119:00000034000000000000000000000000
#02618:00140014
#02614:1414
#02014:00140014
#02018:1414
#01818:00140014
#01814:1414
#01912:1414
#0171a:1414
#01710:41
#01112:1414
#01118:00140014
#0151a:00000014
#01514:0014
#01518:00140000
#01512:14
#01414:00140000
#0141a:14
#01312:00000014
#01318:0014
#01314:00140000
#0131a:24
#0121a:00140000
#01214:14
#01012:00140000
#01018:14
#00914:00140014
#0091a:2414
#00910:41
#00712:00140000
#0331a:00000014
#03312:00240000
#0371f:21
#03718:0026
#03712:26
#03710:0041
#05912:00000026
#05918:00260000
#05512:00000026
#04118:0026
#04112:26
#03112:24242400
#02712:24242400
#0251a:24242400
#01612:24
#00852:00000014
#05558:00160000
#0475a:0000006400000014
#04758:0000000000640000
#04158:00000016
#04152:00160000
#03758:00000016
#03752:00160000
#02958:00000016
#04552:0000005400000014
#04554:0000000000540000
#03255:00000016
#0325a:54
#05152:16
#0545a:0054
#05456:00000025
#04357:00550055
#04359:0055
#03957:00550055
#03959:0055
#05052:0064
#05055:00000025
#04459:55
#04457:0000002500000000
#04059:55
#04057:0000002500000000
#02454:54
#02452:0000006400000000
#0235a:54
#02254:54
#0215a:54
#007320:00000014
#008320:00343424
#0103a0:00001424
#012320:00001424
#014380:00001424
#016320:14000034000034000034000024000000
#0213a0:14
#021390:00000034000000000000000000000000
#021380:0000003400002400
#022340:14
#022330:00000034000000000000000000000000
#022320:0000003400002400
#0233a0:14
#023390:00000034000000000000000000000000
#023380:0000003400002400
#024340:14000024
#024330:00000034000000000000000000000000
#024320:0000003400000000
#0253a0:00001424
#027320:00001424
#029380:00001626
#031320:00001424
#0323a0:14
#032380:00340000
#032370:0034
#032350:00000026
#034340:00143424
#036380:00143424
#037320:16260000
#037380:00001626
#039370:00150035
#039390:0035
#040390:35000025
#040370:0000005500000000
#041320:16260000
#041380:00001626
#043370:00150035
#043390:0035
#044390:35000025
#044370:0000005500000000
#045320:1400343400000024
#045340:0000000000340000
#0473a0:1400343400000024
#047380:0000000000340000
#050320:0014
#050350:00000035
#051320:26
#0543a0:0014
#054360:00000035
#055380:36260000
#063340:1800000000000028
