This file was generated by Ched 2.6.4.0.
#TITLE ""
#ARTIST ""
#DESIGNER ""
#DIFFICULTY 0
#PLAYLEVEL
#SONGID ""
#WAVE ""
#WAVEOFFSET 0
#JACKET ""
#REQUEST "ticks_per_beat 480"
#00002: 4
#BPM01: 128
#00008: 01
#TIL00: ""
#HISPEED 00
#MEASUREHS 00
#0321f:11
#03214:14
#00218:14
#00318:14
#00414:14
#00514:14
#0061a:14
#00610:41
#00712:14
#0081a:14
#00912:14
#01018:14
#01114:14
#01218:14
#01314:14
#02218:14
#02210:41
#02314:14
#0241a:14
#02512:14
#02618:14
#02714:14
#0281a:14
#02912:14
#03318:14
#03412:14
#0351a:14
#03614:14
#03718:14
#03814:14
#03918:14
#04012:2616
#0401f:21
#04118:1616
#04212:1616
#04418:2616
#04512:1616
#04618:1616
#04818:0016
#04812:26
#04912:16
#04918:0016
#05012:16
#05018:0016
#05212:0016
#05218:26
#05318:16
#05312:0016
#05418:16
#05412:0016
#05612:14
#05610:41
#05718:14
#05814:14
#0591a:14
#06012:14
#06118:14
#06214:14
#0631a:14
#06312:0000000000000014
#01410:41
#03010:41
#04310:41
#014380:14
#015380:24
#016340:14
#017340:24
#0183a0:14
#0193a0:24
#020320:14
#021320:24
#030380:14
#031380:24
#043380:1626
#047320:1626
#051320:1626
#055380:1626
