This file was generated by Ched 2.6.4.0.
#TITLE ""
#ARTIST ""
#DESIGNER ""
#DIFFICULTY 0
#PLAYLEVEL
#SONGID ""
#WAVE ""
#WAVEOFFSET 0
#JACKET ""
#REQUEST "ticks_per_beat 480"
#00002: 4
#BPM01: 128
#00008: 01
#TIL00: ""
#HISPEED 00
#MEASUREHS 00
#0321f:11
#03212:1300000013000013
#03217:13
#0321b:00001300000000000013000000130000
#03216:0013000000000000
#03214:00000000130000000000001300000000
#03219:00000000130000000000001300000000
#0401b:23130000000013000000000000130000
#04016:00130000000000000000000000000000
#04012:00000013130000000013000000000000
#04017:00130000
#04015:00000000000000001300000013000013
#04018:00000000000000130000001300000000
#0401f:21
#04118:13000000000000000013000013000000
#04112:00130000130000000000001300000000
#0411b:00000013000000130000000000000013
#04116:0000000000000000000000130000000000000000000000000000000000000000
#04115:00000000000000001300000000130000
#0421b:00000000130000000000002323000000
#04217:00000000000013000023000000002300
#04212:13000013000000001300000000002300
#04218:00130000000000000000000000000000
#04216:00000023
#04412:00000014001400000000001313000000
#04417:00000013
#04416:14141400
#0441a:00140000000000140014000000000000
#0441b:0000000000000013
#04517:13000000131300000000000000000000
#0451b:00001300000000001300000000130000
#04516:00001300000000130000000000000000
#04512:13000000001300000013000000000013
#04518:00000000000000000000001300000000
#04515:00000013
#0461b:00000013001300000000002323000000
#04617:0000000000000000000000000013000000002300000000000000000023000000
#04618:13
#04615:00130000000000000000000000000000
#04612:0000130013000023
#04616:00000023
#04816:00130000000000130000000000000000
#0481b:13130000000000130000000000000000
#04812:0000000000001300130000000000000000000013000000000000130000000000
#04817:0000000000000000130000000000000000000013000000000000000000000000
#04815:0000000000000013
#04818:00000000000000000000000000000013
#0491b:1300000000000000000013000000000000000013000000000000000000000000
#04912:00001300000000130000000000000000
#04917:00000013000000130000000000000000
#04916:0000000000000000000013000000000000000013000000000000000000000000
#05012:13000000001300130000002323000000
#05017:13000000000000130000000023000000
#0501b:00001300000000000023000000002300
#05018:00000013000000000000000000000000
#05015:00130000
#05016:00000000000000000023000000002300
#05215:13000000130000000013000000000000
#05218:00130000001300000000000000000000
#05212:00001300000000130000000000000000
#0521b:00000013000000001300000000001300
#05216:0000000000000013
#05217:00000000000000000000001313000000
#05312:13000000131300000013000000001300
#0531b:00001300000000130000001313000000
#05316:14001400001400140000000000000000
#05317:00000000000000000013000000001300
#0541b:0000000013000013
#05416:00000000000000000013000000000000
#05419:0000000000130000
#05414:00000000000000000000001300000000
#05417:00000013
#05412:00000000000000000000000000130000
#05616:0014
#05612:24
#05610:41
#0571b:00130000000000000013000000000000
#05712:00000013000000000000001300000000
#05718:00000000001300000000000013000013
#05715:00000000000000130000000000130000
#05815:13
#05812:00000013000000000000002323000000
#0581b:00130000000000000023000000002300
#05817:00000013000000000000000023000000
#05816:0000000000000023
#00216:0013000000000000
#00214:00000000001300000000000000000000
#00218:00000000000000000013000000001300
#00215:00000000000000000000130000130000
#0021b:23000000000000000000001300000000
#00217:0000001300000000
#00219:00000013000000000000000000000000
#00212:2313
#00312:14001400000014001300000000130000
#00316:00140000140000140000000000000000
#0031a:00000014001400000000000000000000
#00315:00000000000000000013000000000000
#00318:0000000000130000
#0031b:00000000000000000000001300000013
#00317:00000000000000000000000000130000
#00416:13
#0041b:00001300000000130000000000001300
#00418:00000013000000000000000000000000
#00415:00000000130000000000000000000013
#00412:00000000001300130000000000000000
#00016:1212
#0001a:00001200000000000012000000000000
#00014:00000000120000000000001200000000
#00018:00000000000000000000000000120000
#00012:0000000000000012
#00116:12
#0011a:000000120000000000000000000033333333000000000000
#00114:000000000000120000000000003300000000000000000000
#00115:0013
#00118:0013
#00113:000000000000000000000000000033333333000000000000
#00112:000000000000000000000000000000000000333333333333
#00119:000000000000000000000000003300000000000000000000
#0011b:000000000000000000000000000000000000333333333333
#00518:13000013000000130000000000000000
#00512:0013000000000000
#00515:00000000130000130000000000000000
#0051b:00000000001300000000000000000000
#0061b:13130000
#00614:00000000000000000013000000000000
#00619:00000000000000000013000000000000
#00617:0000000000000000000000130000000000000000000013000000000000000000
#00612:13000000000000000000001300000000
#00616:00001300000000130000000000000000
#00610:41
#00712:13000000000013000000001300000000
#00717:00130000000000130000001300000000
#00716:00000013000000000013000000001300
#0071b:00000000130000000013000000000000
#00812:00130000000013000000001300000000
#00817:00130000000000130000001300000000
#00816:00000013000000000013000000000000
#0081b:00000000130000000013000000001300
#00912:13000000000013000000001300000000
#0091b:00000013000000000013000000000000
#00917:00130000000000130000001300000000
#00916:00000000130000000013000000000000
#01017:00001300000000000013000000000000
#01012:1300130000130013
#0101b:13000000000000130000001300000000
#01016:0000000000000000000000130000000000000000000000000000000000000000
#03912:13130013
#03916:0000001300000013
#0391b:1313
#03917:0013000000130000
#03616:0000000000000014
#03612:23
#0361b:23
#0371b:23000000000000000013000000000000
#03718:00000013
#03712:23000000000000000000001300000000
#03715:0000000000000013
#0381b:23000000000000000013000000000000
#03818:00000000000000000000001300001300
#03815:00000013
#03812:23000000000000000013000000000000
#0301c:00001200000000000012000000000000
#03016:0012000000000000
#03014:0000120000000012
#03012:2312
#03015:00000000000000000000001200000000
#0301a:00000000120000000000000000120000
#03019:00000000000000000000001200000000
#0301b:23
#03010:41
#03112:1212
#03118:12
#0311c:00001200000000000012000000000000
#03116:0012000000000000
#03114:0000120000000012
#03115:00000000000000000000001200000000
#0311a:00000000120000000000000000120000
#03119:00000000000000000000001200000000
#0351b:130000000000000000000000000000000000333333333333
#03516:13
#03512:000000130000000000000000000000000000333333333333
#03517:0013000000000000
#03519:000000000000130000000000003300000000000000000000
#03514:000000000000130000000000003300000000000000000000
#03515:0013
#03518:0013
#03513:000000000000000000000000000033333333000000000000
#0351a:000000000000000000000000000033333333000000000000
#0131b:13000000000013000000001300000013
#01312:00000013000000000013000000000000
#01316:00130000000000130000001300000000
#01317:00000000130000000013000000000000
#01418:00130000000000130000000013000000
#01415:00000013000000001300000000130000
#01412:13000000001300000000001300000000
#0141b:00000000130000000013000000000013
#01410:41
#01518:00130000000000000013000000000013
#01515:00000013000000001300000000130000
#01512:13000000000000000000001300000000
#0151b:00130013
#01517:0000001300000000
#01612:13000000001300000000001300000000
#0161b:00130000000000130000000000000013
#01618:00130013
#01615:00000013000000000000000000001300
#01616:00000000000000130000000000000000
#01718:00130000000000000000000000000000
#01715:00000013000000000000000000000000
#0171b:00000000130000000000001300000000
#01716:0000000000000000000000000013000000000000000000001300000000000000
#01719:00000000000000000000000000130000
#01714:00000000000000000000000000000013
#01712:13000000001300000000000000000000
#01717:0013
#01817:13000000000000130000000000000000
#01812:00130000000000130000000000000000
#01819:00000013000000000000000000130000
#01816:00000000130000000013000013000000
#0181b:00000000001300000000001300000000
#01814:00000000000000000000000000000013
#01916:00000013000000130000000000000000
#01912:00130000001300000000000000130000
#01915:0000000000000013
#01918:00000000000000000000000000000013
#0191b:00000013000000130000000000000000
#01917:1300000000000000000013000000000000000013000000000000000000000000
#0201b:13000000001300000000001300000000
#02012:00001300000000000013000000000013
#02018:00000013000000001300000000130000
#02015:00000000130000130000000013000000
#02118:13000000000000000000000000130000
#02115:00130000000000000000000000000013
#0211b:00000013000000000000001300000000
#02116:00000013000000000000000000000000
#02112:00000000001300000000000000000000
#0221b:13000000130000000013000013000000
#02218:00001300000000130000000000000013
#02215:00000013000000001300000000130000
#02212:13000000001300000000001300000000
#02210:41
#0231b:00130000130000000000000013000000
#02312:00000013000000001300000000130013
#02318:00000000000000000013000000000000
#02315:13000000000000000000001300000000
#02412:00000000130000000013000013000000
#02415:00130000000000130000000000000013
#0241b:00000013000000001300000000130000
#02418:13000000001300000000001300000000
#02512:00130000130000000000000013000000
#0251b:00000013000000001300000000000000
#02518:13000000000000000013001300130000
#02515:00000000000000000000130000000013
#02618:0013000000000013
#0261b:1300000000000000130000000000000000000013000000000000130000000000
#02615:00130000001300000000000000000013
#02617:00000000000000130000000000000000
#02612:00000013000000130000000000000000
#02616:0000000000000000000000000000000000000013000000000000000000000000
#02712:1300000000000000130000000000000000000013000000000000130000000000
#02715:0013000000000013
#02718:00130000001300000000000000000013
#02716:00000000000000130000000000000000
#0271b:00000013000000130000000000000000
#02717:0000000000000000000000000000000000000013000000000000000000000000
#0281b:13000000001300000000001300000000
#02812:00001300000000000013000000000013
#02818:00000013000000001300000000130000
#02815:00000000130000130000000013000000
#02915:00130000000000000000000013000000
#02918:13000013
#02917:0000000000000000000000000000001300000000000000000000000000000000
#0291b:00000013001300000000000000000000
#02916:00000013000000000000000000000000
#02912:00000000001300000000000000000000
#0111b:13000000000013000000001300000000
#01116:00130000000000130000001300000000
#01117:00000013000000000013000000001300
#01112:00000000130000000013000000000000
#0121b:00130000000013000000001300000000
#01216:00130000000000130000001300000000
#01217:00000013000000000013000000000000
#01212:00000000130000000013000000001300
#03312:1300000013000013
#03317:13
#0331b:00001300000000000013000000130000
#03316:0013000000000000
#03314:00000000130000000000001300000000
#03319:00000000130000000000001300000000
#0341b:1300000013000013
#03416:13
#03412:00001300000000000013000000130000
#03417:0013000000000000
#03419:00000000130000000000001300000000
#03414:00000000130000000000001300000000
#04312:13130013
#04316:0000001300000000
#0431b:1313
#04317:0013000000130000
#0431a:00000000000000000000000000000014
#04310:41
#0471b:13130013
#04717:0000001300000000
#04712:13000000000000001300000000000013
#04716:0013000000130000
#05112:13130013
#05116:0000001300000000
#0511b:13000000000000001300000000000013
#05117:0013000000130000
#0551b:13130013
#05517:0000001300000013
#05512:1313
#05516:0013000000130000
#05912:13130013
#05916:0000001300000013
#0591b:1313
#05917:0013000000130000
#06017:0013000000000000
#06019:00000000001300000000000000000000
#06015:00000000000000000013000000001300
#06018:00000000000000000000130000130000
#06012:23000000000000000000001300000000
#06016:0000001300000000
#06014:00000013000000000000000000000000
#0601b:2313
#0611a:1414001400000000
#06116:00140000140000140000000000130000
#06112:00000014001400000000001300000013
#0611b:00000000000000001300000000130000
#06118:00000000000000000013000000000000
#06115:0000000000130000
#06217:13
#06212:00001300000000130000000000001300
#06215:00000013000000000000000000000000
#06218:00000000130000000000000000000013
#0621b:00000000001300130000000000000000
#06315:13000013000000000000000000000000
#0631b:00001300000000130000000000000000
#06318:00130000
#06312:00000000001300000000001300000000
#06316:00000000000000130000000000000000
#06317:00000000000000000000001300000000
#04152:00630000
#04156:0000000000000000000000230000000000000000000000000000000000000000
#0425b:00530000
#04257:0000002300000000
#04452:00000053
#0465b:00000000005300000000000000000000
#04657:0000000000000000000000000023000000000000000000000000000000000000
#04956:0000000000000000000000000000000000000023000000000000000000000000
#04952:00000000000000630000000000000000
#04957:00000000000000630000000000000000
#0495b:0000000000000000000000000000000000000023000000000000000000000000
#05255:00000000000000000053000000000000
#05352:00000000000000000063000000000000
#05652:54
#05656:0024
#05752:00000013000000000000000000000000
#0575b:00130000000000000013000000000000
#05758:00000000001300000000000000000000
#05755:00000000000000130000000000000000
#05852:00000063000000000000000000000000
#05857:00000063000000000000000000000000
#00452:00000000000000530000000000000000
#0045b:00000000000000630000000000000000
#00155:0053
#00158:0063
#00252:1313
#0025b:13
#00555:00000000000000630000000000000000
#00558:00000000000000530000000000000000
#0065b:13630000
#00657:0000000000000000000000230000000000000000000053000000000000000000
#00652:53000000130000000000005300000000
#00656:0023000000000000
#00757:00000000000000000000005300000000
#00852:00000000000000000000005300000000
#00957:00000000000000000000005300000000
#00952:00000000000000000000005300000000
#0105b:63000000130000000000006300000000
#01052:13000000530000130000000000000000
#01057:0023000000000000
#01056:0000000000000000000000230000000000000000000000000000000000000000
#03952:13531353
#03956:0000002300000023
#0395b:63136313
#03957:0023000000230000
#03752:13
#0375b:13
#03852:13
#0385b:13
#0225b:00130013
#0235b:00130013
#02452:00130013
#02552:00130013
#03052:13
#0305b:13
#02955:00000053
#02958:00000063
#0295b:00000013005300000000000000000000
#02952:00000000001300000000000000000000
#02957:0000000000000000000000000000002300000000000000000000000000000000
#01156:00000000000000000000006300000000
#0125b:00000000000000000000006300000000
#01356:00000000000000000000006300000000
#0135b:00000000000000000000006300000000
#0155b:00630000
#01557:0000002300000000
#0165b:00000000000000130000000000000000
#01752:00000000006300000000000000000000
#01756:0000000000000000000000000023000000000000000000000000000000000000
#0215b:00000013000000000000000000000000
#02152:00000000001300000000000000000000
#02657:00000000000000530000000000000000
#0265b:0000000000000000000000000000000000000023000000000000000000000000
#02652:00000000000000530000000000000000
#02656:0000000000000000000000000000000000000023000000000000000000000000
#01957:0000000000000000000000000000000000000023000000000000000000000000
#0195b:00000000000000530000000000000000
#01856:00000000000000000023000000000000
#01852:00000000000000530000000000000000
#02756:00000000000000630000000000000000
#02752:0000000000000000000000000000000000000023000000000000000000000000
#0275b:00000000000000630000000000000000
#02757:0000000000000000000000000000000000000023000000000000000000000000
#03254:00130000
#03354:00130000
#03459:00130000
#03559:00130000
#03555:0053
#03558:0063
#04352:13531353
#04356:0000002300000000
#0435b:63136313
#04357:0023000000230000
#04557:00000000005300000000000000000000
#0475b:13631363
#04757:0000002300000000
#04752:53135313
#04756:0023000000230000
#04852:0000000000000000000000000000000000000023000000000000000000000000
#04856:00000000000000630000000000000000
#04857:0000000000000000000000000000000000000023000000000000000000000000
#0485b:00000000000000630000000000000000
#05152:13531353
#05156:0000002300000000
#0515b:63136313
#05157:0023000000230000
#0555b:13631363
#05557:0000002300000023
#05552:53135313
#05556:0023000000230000
#05952:13531353
#05956:0000002300000023
#0595b:63136313
#05957:0023000000230000
#0625b:00000000000000630000000000000000
#06252:00000000000000530000000000000000
#0605b:0013
#06052:13
#06356:0000000000000013
#0635b:00000000000000530000000000001300
#06352:00000000000000000000005300000000
#06357:00000000000000000000005300000000
#03652:13
#0365b:13
#001350:0013
#001340:000000000000000000000000003300000000000000000000
#001330:000000000000000000000000000033333333000000000000
#001320:000000000000000000000000000000000000333333333333
#002320:23
#001381:0013
#001391:000000000000000000000000003300000000000000000000
#0013a1:000000000000000000000000000033333333000000000000
#0013b1:000000000000000000000000000000000000333333333333
#0023b1:23
#004321:00000000000000130000000000000000
#004351:00000023
#0043b0:00000000000000130000000000000000
#004380:00000023
#005350:00000000000000130000000000000000
#005320:0000000000000023
#005381:00000000000000130000000000000000
#0053b1:0000000000000023
#006321:13230000
#006361:0053000000000000
#0063b0:00000000130000230000000000000000
#006370:0000000000000000000000530000000000000000000000000000000000000000
#006370:00000000000000000000001300000000
#0063b0:0000000000000023
#006321:00000000000000000000001300000000
#006361:0000000000000023
#007371:00000000000000000000001300000000
#0073b1:0000000000000023
#008321:00000000000000000000001300000000
#008361:0000000000000023
#009371:00000000000000000000001300000000
#0093b1:0000000000000023
#009320:00000000000000000000001300000000
#009360:0000000000000023
#0103b0:13230000
#010370:0053000000000000
#010321:00000000130000230000000000000000
#010361:0000000000000000000000530000000000000000000000000000000000000000
#0103b1:00000000000000000000001300000000
#010371:0000000000000023
#011361:00000000000000000000001300000000
#011321:0000000000000023
#0123b1:00000000000000000000001300000000
#012371:0000000000000023
#013361:00000000000000000000001300000000
#013321:0000000000000023
#0133b0:00000000000000000000001300000000
#013370:0000000000000023
#0153b0:00132300
#015370:0000005300000000
#017320:00000000001300002300000000000000
#017360:0000000000000000000000000053000000000000000000000000000000000000
#018320:00000000000000130000002300000000
#018360:00000000000000000053000000000000
#0193b0:00000000000000130000000023000000
#019370:0000000000000000000000000000000000000053000000000000000000000000
#021370:00000000001300002300000000000000
#026370:00000000000000130000000023000000
#0263b0:0000000000000000000000000000000000000053000000000000000000000000
#026321:00000000000000130000000023000000
#026361:0000000000000000000000000000000000000053000000000000000000000000
#027361:00000000000000130000000023000000
#027321:0000000000000000000000000000000000000053000000000000000000000000
#0273b0:00000000000000130000000023000000
#027370:0000000000000000000000000000000000000053000000000000000000000000
#0293b0:00000000001300000000230000000000
#029370:0000000000000000000000000000005300000000000000000000000000000000
#029350:00000013
#030320:23
#029381:00000013
#0303b1:23
#035351:0013
#035341:000000000000000000000000003300000000000000000000
#035331:000000000000000000000000000033333333000000000000
#035321:000000000000000000000000000000000000333333333333
#036321:23
#035380:0013
#035390:000000000000000000000000003300000000000000000000
#0353a0:000000000000000000000000000033333333000000000000
#0353b0:000000000000000000000000000000000000333333333333
#0363b0:23
#0393b0:13230000
#039370:0053000000000000
#039321:00132300
#039361:0000005300000000
#0393b0:00001323
#039370:0000000000530000
#039321:00000013
#039361:0000000000000053
#040321:23
#041321:00000000130000230000000000000000
#041361:0000000000000000000000530000000000000000000000000000000000000000
#0423b1:00132300
#042371:0000005300000000
#0433b1:13230000
#043371:0053000000000000
#043320:00132300
#043360:0000005300000000
#0433b1:00001323
#043371:0000000000530000
#043320:00000013
#043360:00000000000000000000000000000023
#044320:00000013
#044360:0000000000000023
#045370:00000000001300000000000000000000
#0453b0:00000000000000230000000000000000
#0463b0:00000000001300002300000000000000
#046370:0000000000000000000000000053000000000000000000000000000000000000
#047320:13230000
#047360:0053000000000000
#0473b1:00132300
#047371:0000005300000000
#047320:00001323
#047360:0000000000530000
#0473b1:00000013
#047371:00000000000000000000000000000023
#048361:00000000000000130000000023000000
#048321:0000000000000000000000000000000000000053000000000000000000000000
#0483b0:00000000000000130000000023000000
#048370:0000000000000000000000000000000000000053000000000000000000000000
#049320:00000000000000130000000023000000
#049360:0000000000000000000000000000000000000053000000000000000000000000
#049371:00000000000000130000000023000000
#0493b1:0000000000000000000000000000000000000053000000000000000000000000
#0513b1:13230000
#051371:0053000000000000
#051320:00132300
#051360:0000005300000000
#0513b1:00001323
#051371:0000000000530000
#051320:00000013
#051360:00000000000000000000000000000023
#052350:00000000000000000013000000000000
#052320:00000023
#053320:00000000000000000013000000000000
#053360:00000023
#054320:15005500000000550055000000005500250000000000000000000000000000000000000000000000000000000000000000000000000000000000000000000000
#054350:000000000000005200000000000000000000000052000000000000005200000000000000000000000052000000000000000000000000000000000000000000000000000000000000000000000000000000000000000000000000000000000000000000000000000000000000000000000000000000000000000000000000000000000000000000000000000000000000000000000000000000000000000000000000000000000000000000000000000000000000000000000000000000000000
#054391:1555000055000000250000000000000000000000000000000000000000000000
#0543c1:000000000000005200000000000000000000000000000052000000000000000000000000000000000000000000000000000000000000000000000000000000000000000000000000000000000000000000000000000000000000000000000000000000000000000000000000000000000000000000000000000000000000000000000000000000000000000000000000000000000000000000000000000000000000000000000000000000000000000000000000000000000000000000000000
#055321:13230000
#055361:0053000000000000
#0553b0:00132300
#055370:0000005300000000
#055321:00001323
#055361:0000000000530000
#0553b0:00000013
#055370:0000000000000053
#0563b0:23
#056321:14
#056361:0054
#057321:24
#058321:00000013000000000000000000000000
#058361:0023
#058370:00000013000000000000000000000000
#0583b0:0023
#0593b0:13230000
#059370:0053000000000000
#059321:00132300
#059361:0000005300000000
#0593b0:00001323
#059370:0000000000530000
#059321:00000013
#059361:0000000000000053
#060321:23
#0623b1:00000000000000130000000000000000
#062381:00000023
#062320:00000000000000130000000000000000
#062350:00000023
#0633b0:00000000000000130000000000002300
#063370:00000000000000000000005300000000
#063321:00000000000000000000001300000000
#063361:0000000000000023
