This file was generated by Ched 2.6.4.0.
#TITLE ""
#ARTIST ""
#DESIGNER ""
#DIFFICULTY 0
#PLAYLEVEL
#SONGID ""
#WAVE ""
#WAVEOFFSET 0
#JACKET ""
#REQUEST "ticks_per_beat 480"
#00002: 4
#BPM01: 128
#00008: 01
#TIL00: ""
#HISPEED 00
#MEASUREHS 00
#0321f:11
#0321a:14
#03214:00140000
#03218:0014
#0021a:1414
#00214:00140000
#00312:1414
#00318:00140000
#0041a:1414
#00412:00140000
#00514:1414
#00518:00140000
#00718:14
#00714:00140000
#0071a:0014
#00912:14
#0091a:00140000
#00914:0014
#01118:14
#01114:00140000
#0111a:0014
#01312:14
#0131a:00140000
#01314:0014
#0221a:14
#02214:00140000
#02218:0014
#02212:00000014
#02210:41
#0261a:14
#02614:00140000
#02818:14
#02814:00140000
#02914:14
#02918:00140000
#03312:14
#03318:00140000
#03314:0014
#0341a:14
#03414:00140000
#03418:0014
#03518:00140000
#03512:14
#03514:0014
#05712:14
#05718:00140000
#05714:0014
#0571a:00000014
#05812:14
#05818:00140000
#05814:0014
#0581a:00000014
#05912:14
#0591a:0014
#02318:14
#02314:00140000
#02412:14
#02418:00140000
#02414:0014
#0241a:00000014
#02514:14
#02518:00140000
#02718:00140000
#02712:14
#04014:00140000
#04018:0014
#04012:00000014
#0401f:21
#0401a:24
#0411a:14
#04112:00140000
#04118:0014
#04114:00000014
#0421a:14
#04212:00140000
#04418:00140000
#04414:0014
#0441a:00000014
#04412:14
#04512:14
#0451a:00140000
#04514:0014
#04518:00000014
#04612:14
#0461a:00140000
#04818:14
#04814:00140000
#04914:14
#04918:00140000
#05018:14
#05014:00140000
#05212:14
#05218:00140000
#05214:0014
#0521a:00000014
#05312:14
#05318:00140000
#05314:0014
#0531a:00000014
#05418:0014
#05414:00000014
#05412:24
#0541a:24
#06012:1414
#06018:00140000
#0611a:1414
#06114:00140000
#06212:1414
#0621a:00140000
#06318:1414
#06314:00140000
#06312:0000000000000014
#0391a:14
#03912:0014
#04312:14
#0431a:0014
#04310:41
#0471a:14
#04712:0014
#05112:14
#0511a:0014
#0551a:14
#05512:0014
#03012:24
#0301a:24
#03010:41
#03612:24
#0361a:24
#03712:24
#0371a:24
#03812:24
#0381a:24
#01819:00340000
#01818:0034
#02019:00340000
#0201a:0034
#01913:00340000
#01914:0034
#02113:00340000
#02112:0034
#00610:41
#01410:41
#05610:41
#03052:14
#0305a:14
#03652:14
#0365a:14
#03752:14
#0375a:14
#03852:14
#0385a:14
#05952:14
#0595a:0014
#03952:0014
#0395a:14
#04352:14
#0435a:0014
#0475a:14
#04752:0014
#05152:14
#0515a:0014
#0555a:14
#05552:0014
#0063a0:14240000
#006320:00001424
#008340:14240000
#008380:00001424
#010380:14
#0103a0:00240000
#010340:0014
#010320:00000024
#012320:14
#012340:00240000
#0123a0:0014
#012380:00000024
#0143a0:14000024
#014380:00343400
#015320:14000024
#015340:00343400
#0163a0:14000024
#016380:00343400
#017320:14000024
#017340:00343400
#0183a0:14
#018390:00340000
#018380:00003424
#019320:14
#019330:00340000
#019340:00003424
#020380:14
#020390:00340000
#0203a0:00003424
#021340:14
#021330:00340000
#021320:00003424
#0233a0:00001424
#025320:00001424
#026380:00001424
#027340:00001424
#0283a0:00001424
#029320:00001424
#0423a0:00001424
#046320:00001424
#0483a0:0014
#048380:00000024
#049320:0014
#049340:00000024
#0503a0:0014
#050380:00000024
#054320:14240000
#0543a1:14240000
#0563a1:14
#056381:00000024
