This file was generated by Ched 2.7.0.0.
#TITLE ""
#ARTIST ""
#DESIGNER ""
#DIFFICULTY 0
#PLAYLEVEL
#SONGID ""
#WAVE ""
#WAVEOFFSET 0
#JACKET ""
#REQUEST "ticks_per_beat 480"
#00002: 4
#BPM01: 179
#00008: 01
#TIL00: ""
#VOLUME: ""
#HISPEED 00
#MEASUREHS 00
#0821b:6300001300000000
#08215:00001353530000000000000000001300
#08218:00000013
#08212:00000000000000001353530000000000
#05115:0013001300001300
#05118:1300130000000013
#0511b:0000000000130000
#02315:0000001300000000
#0041b:0000000000130013
#00412:00000013
#00418:13130000
#00415:0013001300000000
#0131a:13
#01319:00130000
#01313:0013000000000000
#01312:0000001300000013
#01318:0013
#01315:0000000000130000
#0131b:00000013
#02512:00001313
#0251b:1300000000130000
#02518:0000000000000013
#02715:0000001300000000
#02718:00131300
#0271b:23
#02712:23
#0641b:0013000000000000
#06418:00130000
#06415:0000001300000000
#06412:0013
#06410:41
#03718:0013000000000013
#03715:00130013
#0371b:0013
#03712:0013
#00312:00130000
#00315:0000000000130000
#00318:0013
#0031b:23130000
#00310:41
#00715:00001313
#00718:0000000000130013
#0071b:0013000000000000
#00815:0000130000130000
#00812:13
#0081b:0000001300000000
#00818:0013000000001300
#0101a:0000000000140000
#01016:00000014
#01012:0000000000000014
#01416:0000000000140014
#01412:00000014
#0141a:0014
#0171b:0000001300000013
#01712:13000023
#01718:0013000000130000
#01715:00231300
#01710:41
#02415:00000013
#02818:0000001300001400
#02815:00131300
#02812:23
#0281b:23
#03218:0000000000130013
#03215:00000013
#03612:0000001300000013
#0361b:0013
#03618:00000013
#03615:0000000000130000
#04015:00130013
#04018:0000001300130000
#04012:0013
#0401b:0000000000000013
#04618:0000000000130013
#04615:00000013
#04914:0024002400001400
#04918:14242400
#06218:00260013
#06215:0000000000000013
#06212:0026
#0621f:00210000
#0631b:00130000
#06318:0000001300001300
#06315:0000000013000013
#06312:0000000000130000
#06915:0000000000130013
#06918:00000013
#07818:2300130000000013
#07815:0013001300000000
#07812:0000000000130000
#0781b:0013
#07810:41
#08512:23001616
#0851b:0000001300000000
#08518:0013000000160000
#08515:00130000
#07915:1300000000131300
#07918:00001300000000000000001300000000
#0791b:0000001300000013
#07912:00130000
#05012:0000000000000013
#05015:00131300
#05018:0000001300130000
#0501a:24
#00214:0014
#00212:24
#00216:00000024000000000000000000000000
#0021a:0000002400000000
#0051b:00130000
#00518:0000000000130000
#00515:0013
#00512:00130000
#00618:0013001300000000
#00615:23130000
#0061b:0000000000131300
#00612:0000000000131300
#00914:0000002400240014
#00912:0013000000000000
#00918:00242424
#0111b:0013000000000000
#01115:00130000
#0111a:0000001300000000
#01114:0013
#01119:0000000000130000
#01113:00000013
#01118:0000000000000013
#01212:13
#01218:0013000000000000
#01215:0000000000130000
#0121b:00000013
#01214:0000000000000013
#0151a:14
#01512:0013001300000000
#01518:00231300
#01515:0000000000130013
#0151b:00000023
#01618:1300000000130000
#01612:0013000000000000
#01615:0000001300002300
#0161b:0000230000000013
#01812:0000000000140000
#01816:00000014
#0181a:0000000000000014
#02112:0000001300000013
#0211b:13000023
#02115:0013000000130000
#02118:00231300
#0191b:0013001300000000
#01915:00231300
#01918:0000000000130013
#01912:13000023
#02015:1300000000130000
#0201b:0013000000000000
#02018:0000001300002300
#02012:0000230000000013
#02218:0000000000140000
#02214:00000014
#02615:13130000
#02618:0013000000000000
#02612:0013
#03118:00000013
#03112:2424
#0311a:00240000
#03110:41
#03312:0013001300000013
#03318:00130000
#0331b:00001313
#03315:0000000000130000
#03418:13
#03415:0013
#0341b:00230000
#03412:00000023
#03515:00000013
#03518:0000000000000013
#0351a:2424
#03512:00240000
#04112:0013000000000000
#04115:0000001300000000
#04118:00130000
#0411b:0013
#04215:13
#04218:0013
#04212:00230000
#0421b:00000023
#0431b:00000013
#04312:0000000000000013
#04314:2424
#04318:00240000
#04310:41
#0441b:0013
#04415:0000001300130000
#04418:00130013
#04412:0000000000000013
#05415:13
#0541f:11
#0541b:23232323
#05618:13
#05612:23232323
#05512:13
#05518:23232323
#0571b:13
#05715:23232323
#05812:13000023
#0581b:23
#05818:00230000
#05815:0023
#0591b:13000023
#05912:23
#05915:00230000
#05918:0023
#06515:13000023
#0651b:13000023
#06518:00231300
#06512:00231300
#06615:00000013
#06618:2600000026000013
#06612:00260000
#06712:00130000
#06715:0000001300001300
#06718:0000000013000013
#0671b:0000000000130000
#07519:15
#07512:15
#08015:1300130000000013
#08018:0013001300000000
#0801b:0000000000130000
#08012:0013
#08115:0013000000000000
#08112:0000001300000000
#0811b:00131300
#08118:23000000000000000000005300530000
#0811a:00000000000000000053000000000053
#08119:0000000000530053
#08117:00000053
#08312:0000001300000000
#08315:0013000000000000
#0831b:2313
#08318:00000000130000000000005300000000
#08319:0000000000530000
#0831a:00000000000000000053000000000000
#08317:00000053
#08412:2300001300000000
#08418:00001353530000000000000000001300
#08415:00000013
#0841b:00000000000000001353530000000000
#08712:0013
#0871b:0013
#08715:00000013
#08718:00000013
#03018:0000000000130013
#03015:00000013
#03815:0000000000130013
#03818:00000013
#03912:00000013
#0391b:0000000000000013
#03918:2424
#03914:00240000
#0481b:23230000
#04815:23230000
#04812:00002323
#04818:00002323
#0011a:24
#00112:24
#00114:0000002400000000
#00118:0024
#04715:23
#06115:0000000000230023
#06118:00000023
#0611a:2424
#06116:00000024000000000000000000000000
#06112:0000002400000000
#07018:23
#02914:24
#05212:240000000064
#05216:000064640000
#05214:006400006400
#07112:2323
#07118:2323
#0711b:00230023
#07115:00230023
#0721b:23
#07212:23
#0731a:24
#07312:24
#07419:25
#07412:25
#07718:00000026
#07712:00000026
#08812:23
#0881b:23
#0601b:23
#06012:23
#05316:000064640000
#05312:64
#05314:006400000000
#0175b:0000000000000063
#02358:00000013
#0255b:63
#03152:1414
#0315a:00140000
#03652:0000000000000013
#03758:0000000000000053
#0385b:0013000000000000
#04755:13
#04954:00000014
#06552:00135300
#06555:63000013
#0655b:63000013
#06558:00135300
#06252:0016
#06258:00160000
#06255:0000000000000063
#06658:1600000016000053
#06652:00160000
#03258:0000000000000013
#06355:0000000000000013
#07058:13
#08452:13
#08552:13000066
#00252:00000014
#00254:0064
#00954:0000000000000064
#00858:00000053
#0075b:0063000000000000
#01258:0053000000000000
#0125b:0000001300000000
#01352:0000000000000063
#02152:0000000000000053
#02452:0013
#02458:0013
#02655:00530000
#02652:0053
#02954:64
#02758:0053
#03458:53
#0345b:00130000
#03455:0063
#03452:00000013
#0355a:1414
#03552:00140000
#03558:0000000000000053
#03958:1414
#03954:00140000
#0395b:0000000000000063
#0405b:0000000000000013
#0415b:0063
#04255:63
#04258:0053
#04252:00130000
#0425b:00000013
#04354:1414
#04358:00140000
#04352:0000000000000053
#04452:0000000000000013
#05356:0014
#06452:0053
#06758:0000000000000013
#0725b:00000013
#07252:00000013
#0735a:00000014
#07352:00000014
#07459:00000015
#07452:00000015
#07758:00000016
#07752:00000016
#07559:55
#07552:65
#0825b:13
#0835b:13
#08852:13
#0885b:13
#08752:0053
#0875b:0063
#08755:00000063
#08758:00000053
#001380:0014
#0013a0:00000024
#002340:0014
#002320:00000024
#0073b0:0013000000000000
#007380:0000002300000000
#008380:00000013
#0093b0:23
#009340:0000000000000014
#010320:00240000
#012380:0013000000000000
#0123b0:0000002300000000
#013320:0000000000000013
#014350:00230000
#0173b0:0000000000000013
#018380:00230000
#021320:0000000000000013
#022350:00230000
#0233b0:13230000
#023380:00001323
#024320:1323
#024381:00132300
#0253b1:13
#025381:00230000
#026351:00130023
#026321:0033
#027381:0013
#0273b1:00000023
#029341:14
#030321:0024
#031351:0000000000000013
#032321:0033000000000000
#032351:0000002300000000
#034381:13
#0343b1:00230000
#034351:0013
#034321:00000023
#035381:0000000000000013
#0363b1:0033230000000000
#037381:0000000000000013
#0383b1:0023000000000000
#0393b1:0000000000000013
#040381:0023000000000000
#0413b1:0013
#041381:00000023
#042351:13
#042321:00230000
#042381:0013
#0423b1:00000023
#043321:0000000000000013
#044351:0023000000000000
#045381:0013000000002300
#0453b1:0000003333000000
#045351:0000000000000013
#046321:0033330000000000
#046351:0023
#062381:16260000
#062351:0000000000000013
#063321:0023000000000000
#064321:0013
#064351:00000023
#065351:13
#065321:00230000
#0653b0:13
#065380:00230000
#065380:0013
#0653b0:00000023
#065321:0013
#065351:00000023
#066381:0000000000000013
#0673b1:0023000000000000
#068321:0013000000002300
#068351:0000003333000000
#0683b1:0000000000000013
#069381:0033330000000000
#0693b1:0023
#0723b1:1333333333002300
#072381:0000000000530000
#072320:1333333333002300
#072350:0000000000530000
#0733a0:1434343434002400
#073380:0000000000540000
#073321:1434343434002400
#073341:0000000000540000
#074391:1535353535002500
#074371:000000000000000000000000000000000000000000000000000000000000000000000000000000000000000000000000000000000000000000000000000000000000000000000000000000000000000000000000000000000000000000000000000000000000000000000000000000000000000000000000000000000000000000000000000000000000000000000000000000000000000000000000000000000000000000000000000000000000000000000000000000000000000000000000000000000000000000000000000000000000000000000000000000000000000000000000000000000000000000000000000000000000000000000000000000000000000000000000000000000000000000000000000000000000000000000000000000000000000000000000000000000000000000000000000000000000000000000000000000000000000000000000000000000000000000000000000000000000000000000000000000000000000000000000000000000000000000000000000000000000000000000000000000000000000000000000000000000000000000000000000000000000000000000000000000000000000000000000000000000000000000000000000000000000000000000000000000000000000000000000000000000000000000000000000000000000000000000000000000000000000000000000000000000000000000000000000000000000000000000000000000000000000000000000000000000000000000000000000000000000000000000000000000000000000000000000000000000000000000000000000000000000000000000000000000000000000000000000000000000000000000000000000000000000000000000000000000000000000000000000000000000000000000000000000000000000000000000000000000000000000000000000000000000000000000000000000000000000000000000000000000000000000000000000000000000000000000000000000000000000000000000000000000000000000000000000000000000000000000000000000000000000000000000000000000000000000000000000000000000000000000000000000000000000000000000000000000000000000000000000000000000000000000000000000000000000000000000000000000000000000000000000000000000000000000000000000000000000000000000000000000000000000000000000000000000000000000000000000000000000000000000000000000000000000000000000000000000000000000000000000000000000000000000000000000000000000000000000000000000000000000000000000000000000000000000000000000000000000000000000000000000000000000000000000000000000000000000000000000000000000000000000000000000000000000000000000000000000000000000000000000000000000000000000000000000000000000000000000000000000000000000000000000000000000000000000000000000000000000000000000000000000000000000000000000000000000000000000000000000000000000000000000000000000000000000000000000000000000000000000005500000000000000000000000000000000000000000000000000000000000000000000000000000000000000000000000000000000000000000000000000000000000000000000000000000000000000000000000000000000000000000000000000000000000000000000000000000000000000000000000000000000000000000000000000000000000000000000000000000000000000000000000000000000000000000000000000000000000000000000000000000000000000000000000000000000000000000000000000000000000000000000000000000000000000000000000000000000000000000000000000000000000000000000000000000000000000000000000000000000000000000000000000000000000000000000000000000000000000000000000000000000000000000000000000000000000000000000000000000000000000000000000000000000000000000000000000000000000000000000000000000000000000000000000000000000000000000000000000000000000000000000000000000000000000000000000000000000000000000000000000000000000000000000000000000000000000000000000000000000000000000000000000000000000000000000000000000000000000000000000000000000000000000000000000000000000000000000000000000000000000000000000000000000000000000000000000000000000000000000000000000000000000000000000000000000000000000000000000000000000000000000000000000000000000000000000000000000000000000000000000000000000000000000000000000000000000000000000000000000000000000000000000000000000000000000000000000000000000000000000000000000000000000000000000000000000000000000000000000000000000000000000000000000000000000000000000000000000000000000
#074320:1535353535002500
#074340:0000000000550000
#075390:15
#0753b0:0053
#0763b0:3353535353535353535353533300000033535353535353533300000000000000
#0763a0:00530053005300530053005300530053005300530053005300000000000000000053005300530053005300530053005300000000000000000000000000000000
#0773b0:3353535353530000000000000000000000000000000000000000000000000000
#0773a0:00530053005300530053005333530053005300530053005300000000000000000000540054005400540054005400540000000000000000000000000000000000
#077390:0000000000000053535353533353535334000000000000000000000000000000
#077380:00000000000000000000000000000000000000000000000000530053005300530054005400540054005400540054005426000000000000000000000000000000
#075321:1553
#076321:3353535353535353535353533300000033535353535353533300000000000000
#076331:00530053005300530053005300530053005300530053005300000000000000000053005300530053005300530053005300000000000000000000000000000000
#077321:3353535353530000000000000000000000545454545454542600000000000000
#077331:00530053005300530053005333530053005300530053005300000000000000003400000000000000000000000000000000000000000000000000000000000000
#077341:00000000000000000000000000005300530053005300530033005300530053000054005400540054005400540054005400000000000000000000000000000000
#077351:00000000000000000000000000000000000000000000000000530053005300530000000000000000000000000000000000000000000000000000000000000000
#085321:00000016
#087321:33003300333300333300000000000000
#087351:00000033
#088321:23
#0873b0:13003300333300333300000000000000
#087380:00000033
#0883b0:23
#052920:140000000054
#052960:000054540000
#053920:54
#053960:000054240000
#0819b0:0013
#081970:00000053
#0829b0:23
#082950:0013230000000000
#082920:0000000013230000
#0839b0:0013
#083970:00000023
#084980:0013230000000000
#0849b0:0000000013230000
