This file was generated by Ched 2.7.0.0.
#TITLE ""
#ARTIST ""
#DESIGNER ""
#DIFFICULTY 0
#PLAYLEVEL
#SONGID ""
#WAVE ""
#WAVEOFFSET 0
#JACKET ""
#REQUEST "ticks_per_beat 480"
#00002: 4
#BPM01: 179
#00008: 01
#TIL00: ""
#VOLUME: ""
#HISPEED 00
#MEASUREHS 00
#0031a:1414
#00310:41
#00412:1414
#00518:1414
#00614:1414
#0071a:14
#00712:0014
#00818:14
#00814:0014
#0151a:1414
#01514:00140000
#01612:1414
#01618:00140000
#0171a:14
#01714:00140000
#01719:0014
#01713:00000014
#01710:41
#0501a:1414
#05012:00140014
#07812:14
#07818:00140000
#07814:0014
#0781a:00000014
#07810:41
#07914:14
#07918:00140000
#07912:0014
#07916:00000014
#0821a:00140000
#08214:0014
#08218:00000014
#08212:24
#08316:00140000
#0831a:0014
#08312:24000014
#02412:14
#02416:00140000
#0241a:0014
#02812:14
#02816:00140000
#0281a:0014
#01112:14
#0111a:0014
#01214:14
#01218:0014
#0091a:1414
#00912:00140014
#01312:1414
#0131a:00140014
#01912:1414
#01918:00140000
#0201a:1414
#02014:00140000
#02112:14
#02118:00140000
#02113:0014
#02119:00000014
#0261a:14
#02616:00140000
#02612:0014
#0311a:24141400
#03112:00000014
#03110:41
#03218:1414
#03212:00140014
#03316:00140000
#0331a:14
#03312:0014
#03318:00000014
#03512:24141400
#0351a:00000014
#03614:1414
#0361a:00140014
#03716:00140000
#03712:14
#0371a:0014
#03918:24141400
#03914:00000014
#0401a:14000014
#04016:00140000
#04012:0014
#04118:00140014
#04114:1414
#04314:24141400
#04318:00000014
#04310:41
#04412:14000014
#04416:00140000
#0441a:0014
#05118:1414
#05114:00140014
#06219:00140000
#06218:0014
#06212:00000014
#0621a:24
#0621f:00210000
#0631a:14000014
#06312:00140000
#06316:0014
#06418:00140000
#06414:14
#06412:0014
#0641a:00000014
#06410:41
#06613:00140000
#06614:0014
#0661a:00000014
#06612:24
#06712:14000014
#0671a:00140000
#06716:0014
#06818:00140000
#0681a:14
#06914:00140000
#06912:14
#0801a:14
#08014:00140000
#08018:0014
#08012:00000014
#08118:14
#08114:00140000
#0811a:0014
#08116:00000014
#08412:00140000
#08418:0014
#08414:00000014
#0841a:24
#08516:00140000
#08512:0014
#0851a:24000014
#08714:00140014
#08718:0014
#0451a:14
#04612:14
#0541f:11
#05412:0034
#00118:26
#00212:26
#04718:24
#04914:24
#08812:24
#0881a:24
#04814:2424
#04818:00240024
#06012:24
#0601a:24
#02912:24
#0291a:24
#07018:24
#07212:24
#07214:0000343400000000
#07213:0034000000000000
#07112:2424
#0711a:00240024
#0731a:24
#07319:0034000000000000
#07318:0000343400000000
#07414:24
#07413:0034000000000000
#07412:0000343400000000
#0571a:34
#0561a:0034
#05512:34
#07519:0034000000000000
#0751a:0000343400000000
#03054:0014
#03058:0014
#04954:00000014
#08852:14
#0885a:14
#02952:54
#0295a:64
#03854:0014000000000000
#04758:14
#0535a:0014
#06159:0014
#06153:0014
#06858:00240000
#0685a:64
#06954:00240000
#06952:54
#07058:14
#07254:00000014
#07358:00000014
#07452:00000014
#0765a:14
#0855a:00000064
#0455a:64
#04652:54
#001380:1626
#002320:1626
#0103a0:1424
#014320:1424
#018380:1424
#022340:1424
#023380:14
#0233a0:0024
#025340:14
#025320:0024
#0273a0:14
#027380:0024
#0293a0:14
#030380:0024
#029321:14
#030341:0024
#034341:14240000
#034381:00001424
#037341:00000014
#038341:0024000000000000
#042321:14240000
#0423a1:00001424
#0453a1:14
#045381:0024
#046321:14
#046341:0024
#049341:1434343434002400
#052381:14
#0523a1:0034
#053381:34
#0533a1:0024
#054321:1434
#055321:34
#055341:0024
#0563a1:1434
#0573a1:34
#057381:0024
#058321:14
#058341:0024
#0593a1:14
#059381:0024
#061391:1424
#061330:1424
#065340:14
#065320:00240000
#065380:0014
#0653a0:00000024
#0683a0:1424
#068380:00540000
#069320:1424
#069340:00540000
#072320:14
#072330:0034000000000000
#072340:0000343434002400
#0733a0:14
#073390:0034000000000000
#073380:0000343434002400
#074340:14
#074330:0034000000000000
#074320:0000343434002400
#075380:14
#075390:0034000000000000
#0753a0:0000343434003400
#0763a0:24
#0853a0:00000014
#087380:24
