This file was generated by Ched 2.7.0.0.
#TITLE ""
#ARTIST ""
#DESIGNER ""
#DIFFICULTY 0
#PLAYLEVEL
#SONGID ""
#WAVE ""
#WAVEOFFSET 0
#JACKET ""
#REQUEST "ticks_per_beat 480"
#00002: 4
#BPM01: 94
#BPM02: 102
#BPM03: 106
#BPM04: 110
#BPM05: 98
#BPM06: 114
#BPM07: 118
#BPM08: 122
#BPM09: 126
#BPM0A: 128
#BPM0B: 130
#BPM0C: 132
#BPM0D: 134
#BPM0E: 136
#BPM0F: 138
#BPM0G: 140
#BPM0H: 142
#BPM0I: 124
#BPM0J: 112
#BPM0K: 100
#BPM0L: 88
#BPM0M: 144
#BPM0N: 148
#BPM0O: 152
#BPM0P: 156
#BPM0Q: 160
#BPM0R: 150
#BPM0S: 120
#BPM0T: 108
#BPM0U: 96
#BPM0V: 90
#00008: 01
#04808: 01
#00308: 02
#07008: 02000U0V
#00408: 03
#04608: 03
#00508: 04
#00208: 05
#00608: 06
#06808: 06
#00708: 07
#04408: 07
#00808: 08
#00908: 09
#02208: 0A
#05008: 0A
#02308: 0B
#04208: 0B
#06608: 0R0G0B0S
#02408: 0C
#05208: 0C
#02508: 0D
#02608: 0E
#04108: 0E
#05308: 0E
#02708: 0F
#02808: 0G
#05408: 0G
#02908: 0H
#04308: 0I
#04508: 0J
#04708: 0K
#04908: 0L
#05508: 0M
#05608: 0N
#05708: 0O
#05808: 0P
#05908: 0Q
#06908: 0T
#TIL00: ""
#VOLUME: ""
#HISPEED 00
#MEASUREHS 00
#0411f:11
#0411b:00130000
#04118:1600000013130013
#04115:00130013
#04112:13000000000000000013000000000000
#02618:2613000013000013
#02615:00000000130000130000000013000000
#02612:1300000000130000
#0261b:0000001300000000
#02518:26000000000000000013000000000000
#02515:1300000013130013
#0251b:00130013
#04012:0013
#04018:13130023
#0401b:0013
#04015:13000023
#0211b:13000000000000000013000000000000
#02118:00130013
#02112:13
#02115:0000000013130013
#02110:41
#0511b:13130000
#05115:0000000000000013
#05118:00000000000000000013000000000000
#05112:1313
#0511f:21
#04815:00001300130000130000130000000000
#04812:1300000000000013
#04818:16001313
#0481b:0000001300000000
#0461b:1300000000000013
#04615:00001313
#04618:00001300130000130000130000000000
#04612:1600001300000000
#06612:00165616
#06618:16561656
#06617:00560056000000000056005600000000
#06616:0056000000560000
#06613:00000000005600560000000000000000
#06614:0000005600000076
#05718:1300000013000013
#05715:00130000
#05712:26000000000000000013000000000000
#0371b:00000000000000130000000013000000
#03715:0000001313000000
#03712:0013130000130000
#03718:00000013000000000000000000000000
#03717:13
#03710:41
#03815:13000013000013000000000013000000
#03812:0000000013000013
#0381b:0013130013001300
#03818:0000000000130000
#03614:00000013
#03615:1313130000130000
#03618:0000000000000013
#03616:0013
#0361b:00000013000013001300000000000000
#03518:0000001313001300
#03512:00000000000000130000000000000000
#03515:00000013000000000000130000000000
#0351b:0013130000000000
#03516:13
#03315:0000001313001300
#0331b:13000000000000130000000000000000
#03318:00000013000000000000130000000000
#03312:1313130000000000
#03419:00000013
#03418:1313130000130000
#03415:0000000000000013
#03417:0013
#03412:00000013000013001300000000000000
#04715:0000130000000013
#0471b:00130000
#04712:1600000013130000
#04718:13000000000000000013000013000000
#04518:1600130000000013
#04512:00130000
#0451b:0000000013130000
#04515:13000000000000000013000013000000
#04312:16130000
#04315:0000000013130013
#04318:00130013
#0431b:13000000000000000013000000000000
#01212:00000013
#01217:0013
#01112:13
#0101b:00000013
#01016:0013
#0131b:13000000000000130000000000000000
#01312:00000013000000000000000013000000
#01315:0000001300000000
#01318:0013000000130000
#01310:41
#03912:1300000000000013
#03915:0000001300000000
#0391b:0000001300000000
#03918:13
#03216:0000001313000000
#0321b:0013
#03214:0013000000000000
#03017:0000001313000000
#03012:0013
#03019:0013000000000000
#03116:1313000000000000
#03112:0000000000130013
#03114:0000001300000000
#0291b:0000000000130013
#02919:0000001300000000
#02917:0013000000000000
#02918:26
#02910:41
#02718:1300000013130013
#02712:26130013
#02715:00000000000000000013000000000000
#0231b:13
#02315:00130013
#02318:0000000013130013
#02312:26000000000000000013000000000000
#02015:0013
#02018:0013
#02012:13130023
#0201b:13000023
#0611b:1313000000000000
#06112:13
#06114:0000000000000013
#0611a:0000000000130000
#06113:0000001300000000
#05912:1313000000000000
#05919:0000000000000013
#05913:0000000000130000
#0591a:0000001300000000
#05918:26
#0701b:13130013
#07012:16131316
#07016:0013000000000013
#07017:0000000000130000
#07018:0000001316000000
#07015:00000000000000130000000000000000
#06918:1600000000000013
#06915:00000013
#0691b:00130000
#06912:13000000000000000013000000000000
#06917:0013
#06916:00130000
#06812:1300130000000013
#0681b:0000001313000000
#06815:00001300000000130000000013000000
#06818:1600130000130000
#06715:0000000000000013
#06718:00000013
#06712:56130000
#0671b:13000000000000000013000000000000
#06716:0013
#06717:00130000
#05818:26000000130000130000000000001300
#05815:0013001300000000
#05812:13130000
#05615:00000000130000130000000000001300
#05618:0013001300000000
#0561b:13130000
#05612:26
#05515:1300000013000013
#0551b:00000000000000000013000000000000
#05518:26130000
#05418:00001300130000130000000000001300
#0541b:13
#05415:0000001300000000
#05412:26130000
#05318:0000000000000013
#0531b:1313
#05315:00000000000000000013000000000000
#05312:26130000
#02818:00000000130000130000000013000000
#0281b:1300000000130000
#02812:2600001300000000
#02815:0013000013000013
#02415:00000000130000130000000013000000
#02418:0013001300130000
#0241b:1313
#02412:2600000000000013
#02218:26000000130000130000000013000000
#02215:0013001300130000
#02212:1313
#0221b:0000000000000013
#0091b:13
#00912:26
#01912:13
#01918:1300000000000013
#0151b:13000013000000000000000013000000
#01512:00000000000000130000000000000000
#01518:0000001300000000
#01515:0013000000130000
#0161b:0000001300130013
#01615:0013130013001300
#01612:13
#01618:00000013000000000000000000000000
#01715:00000013000000000000000013000000
#01718:00000000000000130000130000000000
#01712:1300001300000000
#0171b:0013000000000000
#01412:0000001300130013
#01418:0013130013001300
#01415:00000013000000000000000000000000
#0141b:13
#04912:13
#04918:16
#04917:00000052
#04212:16000000000000000013000000000000
#04218:0013000013130013
#0421b:13
#04215:00130013
#04415:0013000013130013
#0441b:00000000000000000013000000000000
#04418:16130013
#04412:13
#05018:2613
#05015:00130000
#05012:13000023
#0501b:00000023
#05215:00001300130000130000000000001300
#05218:2600001300000000
#0521b:00130000
#05212:13
#05210:41
#0621b:00000013
#06212:00000013
#06218:0013
#06215:0000001300000000
#06219:0013000000000000
#06012:00000013
#0601b:00000013
#06015:0013
#06018:0000001300000000
#06014:0013000000000000
#06418:0000000013131300
#06412:13000000000000005313001300000000
#06414:0053005300000000
#06413:00530000000000530000000000000000
#06415:00000053005300000000000000000000
#06416:00530000
#0651b:1300000013131300
#06512:00130000
#06516:00000000000000005313001300000000
#0651a:00530000000000000000000000000000
#06519:0053000000000000
#06518:00000053000000000000000000000000
#06517:00530000
#06513:00000000005300000000000000000000
#06514:0000005300000000
#06515:00000000000000530000000000000000
#06315:0000000013131300
#0631b:13000000000000005313001300000000
#06310:41
#06319:0053005300000000
#0631a:00530000000000530000000000000000
#06318:00000053005300000000000000000000
#06317:00530000
#01815:00000013000000001300000000001300
#01818:0013130000130000
#0181b:13001313
#01812:0000001300001300
#0081a:0000000000000012
#00816:0000000000120000
#00815:0012
#00818:2600001200000000
#00817:00120000
#00814:0012000000000000
#00819:00000012
#0071a:00000012
#00716:00120000
#00712:26
#00418:2600121200000000
#0041a:0000000000001212
#00414:0012000000000000
#00416:0000000012120000
#00614:0000000000000012
#00618:0000000000120000
#00619:0012
#00616:0000001200000000
#00617:00120000
#0061a:0012000000000000
#00615:00000012
#00612:26
#00514:00000012
#00518:26120000
#0031a:00000012
#00314:00120000
#00312:26
#00214:0000000000001212
#00218:0000000012120000
#00216:0000121200000000
#0021a:0012000000000000
#00212:26
#00114:00000012
#0011a:00120000
#00118:26
#0721c:52
#07212:52
#01252:00001353
#0125b:00000013
#01257:0053
#0105b:00001363
#01052:00000013
#01056:0063
#03252:00000013
#03257:00000013
#03256:0063
#0325b:0063
#0305b:00000013
#03056:00000013
#03057:0053
#03052:0053
#06654:0000000000000026
#06652:00000056
#04055:63000013
#04058:00530013
#04052:0053
#0405b:0063
#05052:00000013
#0505b:00000013
#02052:00530013
#0205b:63000013
#02055:0063
#02058:0053
#0255b:00630000
#02555:63
#05755:00630000
#05758:53
#0375b:00000063
#03654:00000063
#0365b:0063
#03459:00000053
#03452:0053
#02758:53
#02752:00530000
#0235b:63
#02355:00630000
#02158:00530000
#02152:53
#03955:0000002300000000
#0395b:0000002300000000
#03952:53
#03958:53
#03558:00000053
#03355:00000063
#06956:00630000
#06952:53
#06757:00530000
#0675b:63
#0535b:63
#05352:00530000
#05152:53
#0515b:00630000
#0475b:00630000
#04758:53
#04552:00530000
#04555:63
#04155:00630000
#04152:53
#04358:00530000
#0435b:63
#01952:53
#01958:53
#0155b:00000063
#0165b:0000002300230023
#01655:00002323
#01755:00000063
#01452:0000005300530053
#01458:00005353
#01352:00000053
#05558:00530000
#05555:63
#04952:53
#0625b:00000013
#06252:00000013
#06258:0013
#06255:0000001300000000
#06259:0013000000000000
#06154:0000000000000013
#0615a:0000000000130000
#06153:0000001300000000
#0615b:0013000000000000
#06052:00000013
#0605b:00000013
#06055:0013
#06058:0000001300000000
#06054:0013000000000000
#05959:0000000000000013
#05953:0000000000130000
#0595a:0000001300000000
#05952:0013000000000000
#001360:1222
#0013a1:0012
#0023a1:22
#003381:1222
#003340:0012
#004340:22
#005360:1222
#005340:00520000
#0053a1:0012
#0053c1:00000052
#0063a1:22
#007381:1222
#0073a1:00520000
#007340:0012
#007320:00000052
#008340:22
#009320:0013002300000000
#009381:0000001300230000
#009340:0000000000130023
#009391:0000000000000013
#010391:0023000000000000
#010360:0013002300000000
#0103b1:0000001323000000
#010360:0013
#010320:00000023
#0103b1:00000013
#011371:23
#0113b1:0013002300000000
#011350:0000001300230000
#011391:0000000000130023
#011340:0000000000000013
#012340:0023000000000000
#012371:0013002300000000
#012320:0000001323000000
#012371:0013
#0123b1:00000023
#012320:00000013
#013360:23
#013380:00130000
#0133b0:0000002300000000
#013350:0013
#013320:0000000000230000
#013320:00000013
#014350:23
#014320:0000001300000000
#014350:0023
#014381:0013
#0143b1:0000000000230000
#014320:0000000000130000
#014350:00000023
#014381:00000013
#0143b1:0000000000000023
#014320:0000000000000013
#015350:23
#015350:00130000
#015320:0000002300000000
#015380:0013
#0153b0:0000000000230000
#0153b0:00000013
#016380:23
#0163b0:0000001300000000
#016380:0023
#016351:0013
#016321:0000000000230000
#0163b0:0000000000130000
#016380:00000023
#016351:00000013
#016321:0000000000000023
#0163b0:0000000000000013
#017380:23
#0173b0:00130000
#017380:0000002300000000
#017320:0013
#017350:0000000000230000
#017350:00000013
#018320:23
#019320:13
#019350:00000023
#019381:13
#0193b1:00000023
#0203b1:13
#020381:00230000
#020320:00130023
#020350:0033
#020381:0013
#0203b1:00000023
#021321:13
#021351:00230000
#021380:00130000
#0213b0:0023
#0233b0:13
#023380:00230000
#023351:00130000
#023321:0023
#025351:13
#025321:00230000
#0253b0:00130000
#025380:0023
#027380:13
#0273b0:00230000
#027321:00130000
#027351:0023
#029321:13
#030321:0033
#030361:00000023
#030370:0013
#0303b0:00000023
#0313b0:13
#0323b0:0033
#032370:00000023
#032361:0013
#032321:00000023
#033351:00000013
#034321:23
#034321:0013
#034341:00000023
#034390:00000013
#0353b0:23
#035380:00000013
#0363b0:23
#0363b0:0013
#036390:00000023
#036341:00000013
#037321:23
#0373b1:00000013
#038381:23
#039321:13000023
#039351:0000005300000000
#039380:13000023
#0393b0:0000005300000000
#040350:13
#040320:00230000
#040381:00130023
#0403b1:0033
#040320:0013
#040350:00000023
#041320:1323
#041350:00330000
#042320:0000001323000000
#0433b0:1323
#043380:00330000
#0443b0:0000001323000000
#045350:1323
#045320:00330000
#047380:1323
#0473b0:00330000
#049320:13
#049370:00000022
#051320:13
#051350:00230000
#0513b1:00130000
#051381:0023
#051321:0000000000130000
#051351:00000023
#051380:00000013
#0513b0:0000000000000023
#052380:0000000013230000
#052321:0000000000132300
#0523b0:0000000000001323
#0533b0:13
#053380:00230000
#053321:00130000
#053351:0023
#0533b1:0000000000130000
#053381:00000023
#053350:00000013
#053320:0000000000000023
#054350:0000000013230000
#0543b1:0000000000132300
#054320:0000000000001323
#055350:13
#055320:00230000
#055381:00130000
#0553b1:0023
#055351:0000000000130000
#055321:00000023
#0553b0:00000013
#055380:0000000000000023
#0563b0:0013
#056380:0000000000230000
#056321:0000000000130000
#056351:00000023
#056380:00000013
#0563b0:0000000000000023
#057380:13
#0573b0:00230000
#057351:00130000
#057321:0023
#057381:0000000000130000
#0573b1:00000023
#057320:00000013
#057350:0000000000000023
#058320:0013
#058350:0000000000230000
#0583b1:0000000000130000
#058381:00000023
#058350:00000013
#058320:0000000000000023
#0673b0:1323
#067370:00330000
#067360:0000000000130000
#067320:00000023
#069320:1323
#069360:00330000
#069370:0000000000130000
#0693b0:00000023
#0713b0:13
#0723c0:22
#071321:13
#072321:22
#0639b0:1323
#063970:00530000
#064920:1323
#064960:00530000
#0659b0:13
#065970:00230000
#065921:00130000
#065961:0023
#066981:16260000
#066961:0056000000000000
#066920:00162600
#066940:0000005600000000
#066981:00001626
#066961:0000000000560000
#066920:00000016
#066940:0000000000000056
#067920:26
