This file was generated by Ched 2.7.0.0.
#TITLE ""
#ARTIST ""
#DESIGNER ""
#DIFFICULTY 0
#PLAYLEVEL
#SONGID ""
#WAVE ""
#WAVEOFFSET 0
#JACKET ""
#REQUEST "ticks_per_beat 480"
#00002: 4
#BPM01: 94
#BPM02: 102
#BPM03: 106
#BPM04: 110
#BPM05: 98
#BPM06: 114
#BPM07: 118
#BPM08: 122
#BPM09: 126
#BPM0A: 128
#BPM0B: 130
#BPM0C: 132
#BPM0D: 134
#BPM0E: 136
#BPM0F: 138
#BPM0G: 140
#BPM0H: 142
#BPM0I: 124
#BPM0J: 112
#BPM0K: 100
#BPM0L: 88
#BPM0M: 144
#BPM0N: 148
#BPM0O: 152
#BPM0P: 156
#BPM0Q: 160
#BPM0R: 150
#BPM0S: 120
#BPM0T: 108
#BPM0U: 96
#BPM0V: 90
#00008: 01
#04808: 01
#00308: 02
#07008: 02000U0V
#00408: 03
#04608: 03
#00508: 04
#00208: 05
#00608: 06
#06808: 06
#00708: 07
#04408: 07
#00808: 08
#00908: 09
#02208: 0A
#05008: 0A
#02308: 0B
#04208: 0B
#06608: 0R0G0B0S
#02408: 0C
#05208: 0C
#02508: 0D
#02608: 0E
#04108: 0E
#05308: 0E
#02708: 0F
#02808: 0G
#05408: 0G
#02908: 0H
#04308: 0I
#04508: 0J
#04708: 0K
#04908: 0L
#05508: 0M
#05608: 0N
#05708: 0O
#05808: 0P
#05908: 0Q
#06908: 0T
#TIL00: ""
#VOLUME: ""
#HISPEED 00
#MEASUREHS 00
#03912:14
#01314:00140014
#01318:1414
#01310:41
#07112:14
#0011a:14
#00114:0014
#0021a:14
#00214:0014
#00318:14
#00312:0014
#00418:14
#00412:0014
#0051a:14
#00512:0014
#00618:14
#00614:0014
#0071a:14
#00712:0014
#00818:14
#00814:0014
#01518:00140014
#01514:1414
#03312:00140000
#0331a:14
#03314:00000014
#03318:0014
#03412:00140000
#03416:0014
#0341a:14000014
#0351a:00140000
#03512:14
#03518:00000014
#03514:0014
#0361a:00140000
#03616:0014
#03612:14000014
#03712:00000014
#0371a:0014
#03714:00140000
#03718:14
#03710:41
#03818:14
#03814:00140000
#0381a:0014
#03816:00000014
#04014:00000014
#04018:1414
#04012:00140000
#01714:00140014
#01718:1414
#01814:00140000
#01818:14
#01816:00000014
#0181a:0014
#01912:14
#02014:00140014
#02018:1414
#02314:00000014
#02318:0014
#02414:00000014
#02418:0014
#02412:00140000
#0241a:14
#02618:00140000
#02614:14
#0261a:00000014
#02612:0014
#0251a:00000014
#02512:0014
#02814:00140000
#02818:14
#02812:00000014
#0281a:0014
#02712:00000014
#0271a:0014
#02212:14
#0221a:00140000
#02214:0014
#02218:00000014
#02114:0014
#02118:00000014
#02110:41
#04812:14
#04814:0014
#04818:00140000
#0481a:00000014
#04714:1414
#04718:00140014
#04712:00140000
#0471a:14
#0461a:14
#04618:0014
#04614:00140000
#04612:00000014
#04518:1414
#04514:00140014
#0451a:00140000
#04512:14
#04414:00000014
#04412:00140000
#0441a:0014
#04418:14
#04314:14140014
#04318:0014
#0431a:14140000
#04218:00000014
#0421a:00140000
#04212:0014
#04214:14
#04118:14140014
#04114:0014
#04112:14140000
#0411f:11
#05112:0014
#05116:00000014
#0511f:21
#0521a:14000014
#05212:0014
#05216:00140000
#05210:41
#0531a:0014
#05316:00000014
#05412:14000014
#0541a:0014
#05416:00140000
#05514:0014
#05518:00000014
#05612:14
#05616:00140014
#0561a:0014
#05718:0014
#05714:00000014
#0581a:14
#05816:00140014
#05812:0014
#06712:00141400
#06717:00140000
#0671a:14000014
#06715:14
#0691a:00141400
#06915:00140000
#06912:14000014
#06917:14
#06812:14000014
#06816:00140000
#0681a:0014
#0701a:14000014
#07016:00140000
#07012:0014
#06612:24
#06614:0034
#06613:00340000
#0101a:0034003400000000
#0091a:0034003400340034
#01212:0034003400000000
#01112:0034003400340034
#03018:0034003400000000
#02918:0034003400340034
#02910:41
#03214:0034003400000000
#03114:0034003400340034
#05016:00343400
#0601a:0034003400000000
#05917:0034003400340000
#06212:0034003400000000
#06115:0034003400340000
#06319:00340000
#06318:0034
#06310:41
#06414:0034
#06413:00340000
#06518:0034
#06519:00340000
#03952:54
#03954:0014
#07152:54
#01952:54
#01954:0014
#05054:00000018
#009380:14
#0093a0:0034003400340034
#0103a0:0034003434002400
#011340:14
#011320:0034003400340034
#012320:0034003434002400
#014380:14340000
#014390:0034
#0143a0:00000024
#016340:14340000
#016330:0034
#016320:00000024
#019320:14
#019340:0024
#0213a0:14240000
#023320:14240000
#025380:14240000
#027340:14240000
#0293a0:14
#029380:0034003400340034
#030380:0034003434002400
#031320:14
#031340:0034003400340034
#032340:0034003434002400
#039320:14
#039340:0024
#049320:14
#050360:34343400
#050340:00000028
#051380:14
#0513a0:00240000
#053340:14
#053320:00240000
#0553a0:14
#055380:00240000
#057320:14
#057340:00240000
#0593a0:14
#059370:0034003400340034
#0603a0:0034003434002400
#061320:14
#061350:0034003400340034
#062320:0034003434002400
#0633a0:14
#063390:00340000
#063380:00003424
#064320:14
#064330:00340000
#064340:00003424
#0653a0:14
#065390:00340000
#065380:00003424
#066320:14
#066330:00340000
#066340:00003424
#071320:14
#072360:24
