This file was generated by Ched 2.7.0.0.
#TITLE ""
#ARTIST ""
#DESIGNER ""
#DIFFICULTY 0
#PLAYLEVEL
#SONGID ""
#WAVE ""
#WAVEOFFSET 0
#JACKET ""
#REQUEST "ticks_per_beat 480"
#00002: 4
#BPM01: 245
#BPM02: 140
#BPM03: 255
#BPM04: 155
#BPM05: 310
#00008: 01
#06708: 0001
#07508: 00000402
#07608: 03
#04108: 0004
#04508: 0005
#TIL00: ""
#VOLUME: ""
#HISPEED 00
#MEASUREHS 00
#01512:14
#00918:14
#01018:14
#01114:14
#01214:14
#0131a:14
#0141a:14
#01612:14
#01718:14
#01710:41
#01814:14
#01918:14
#02014:14
#0211a:14
#02518:14
#02614:14
#0271a:14
#02812:14
#02212:14
#0231a:14
#02412:14
#05218:0014
#05512:0014
#05714:0014
#05814:0014
#05918:0014
#06018:0014
#07112:0014
#07618:2616
#0761f:21
#11414:0014
#11318:0014
#11514:0014
#11812:0014
#11912:0014
#12018:0014
#04512:0014
#0461a:0014
#04712:0014
#0481a:0014
#04914:0014
#05018:0014
#05114:0014
#05312:0014
#05310:0041
#0721a:0014
#07712:1616
#07710:41
#07818:16
#07812:0016
#08012:16
#08018:0016
#08112:16
#08118:0016
#08418:2616
#08512:1616
#08618:16
#08612:0016
#08718:16
#08712:0016
#08818:1616
#08912:1616
#09212:16
#09218:0016
#09210:41
#10012:2616
#10118:1616
#10212:16
#10218:0016
#10312:16
#10318:0016
#10412:1616
#10518:1616
#11118:0016
#11112:26
#11018:0016
#11012:16
#11212:16
#11218:0024
#11210:0041
#1161a:0014
#1171a:0014
#0611f:0011
#06112:0024
#12718:0026
#12712:00000026
#00118:26
#00312:26
#00518:26
#00712:26
#03318:26
#03512:26
#03718:26
#03812:26
#03918:26
#03912:0026
#04018:26
#0541a:0024
#0561a:0024
#0631a:0024
#06514:0024
#06618:0024
#10818:26
#12818:26
#12812:00260000
#12414:0024
#04110:0041
#12058:0054
#12454:0064
#029380:1434
#030380:3424
#031340:14
#032340:24
#041340:0014
#042340:0024
#043380:0014
#044380:0024
#061320:0014
#062320:0024
#0633a0:0014
#0643a0:0024
#067340:0014
#068340:0024
#069380:0014
#070380:0024
#073320:0014
#075320:24
#079380:1626
#082320:1636
#083320:26
#090380:16
#091380:26
#093320:16
#094340:56
#095320:26
#096380:1626
#097320:1626
#098380:1636
#099380:0026
#106320:16
#107320:26
#108380:16
#109380:26
#120380:0014
#1233a0:0024
#124340:0014
#126320:0024
#128380:0016
#129380:00360000
#130380:36260000
