This file was generated by Ched 2.7.0.0.
#TITLE ""
#ARTIST ""
#DESIGNER ""
#DIFFICULTY 0
#PLAYLEVEL
#SONGID ""
#WAVE ""
#WAVEOFFSET 0
#JACKET ""
#REQUEST "ticks_per_beat 480"
#00002: 4
#BPM01: 245
#BPM02: 140
#BPM03: 255
#BPM04: 155
#BPM05: 310
#00008: 01
#06708: 0001
#07508: 00000402
#07608: 03
#04108: 0004
#04508: 0005
#TIL00: ""
#VOLUME: ""
#HISPEED 00
#MEASUREHS 00
#0151a:00140014
#01512:1414
#0901a:0000001400000000
#00714:1414
#00718:00140014
#03114:14
#03118:0014
#0611a:0014
#06114:14
#0611f:0011
#08912:0014
#0891a:14
#09214:1414
#09218:00140014
#09210:41
#00814:14
#0081a:0024
#0111a:0014
#01112:24
#00912:0014
#01018:1414
#01014:00140000
#01214:1414
#01218:00140000
#01312:0014
#0131a:24
#01418:1414
#01414:00140000
#0161a:00140000
#01612:1414
#01718:14
#01714:0014
#01710:41
#01912:14
#01918:0014
#02012:14
#02018:0014
#02514:14
#02518:0014
#0271a:14
#02714:0014
#0281a:14
#02814:0014
#02312:14
#0231a:0014
#02412:14
#0241a:0014
#03214:14
#04112:00000014
#0411a:0024
#04110:0041
#0421a:14
#04212:00140000
#04218:0014
#04214:00000014
#04318:14
#04314:00140000
#0431a:0014
#04312:00000014
#04418:1414
#04414:00140014
#0451a:14
#04512:00140000
#05218:14
#05214:0014
#05318:14
#05310:0041
#05514:0014
#05618:14
#05614:0024
#0571a:0014
#05812:14
#0581a:0014
#05912:14
#05918:0014
#06014:14
#06018:0014
#06312:0014
#06814:14
#07018:14
#0711a:0014
#07212:14
#07218:0014
#07214:00000014
#07318:14
#07312:0014
#0741a:14
#07414:0014
#07418:00000014
#07612:00140014
#0761a:2414
#0761f:21
#07718:1414
#07714:00140014
#07710:41
#0781a:14
#07812:00140000
#07818:0014
#07814:00000014
#0791a:1414
#07912:00140000
#08014:1414
#08018:00140014
#08112:1414
#0811a:00140014
#08418:1414
#08414:00140014
#0851a:1414
#08512:00140014
#08618:14
#08614:00140000
#0861a:0014
#08612:00000014
#08718:1414
#08714:00140014
#0881a:14
#08812:0014
#09312:14
#0931a:00140000
#09416:0000001400000000
#09814:1414
#09818:00140000
#10612:0000001400000000
#1051a:0014
#10512:14
#10014:1414
#10018:00140014
#10112:1414
#1011a:00140014
#10214:14
#10218:00140000
#10212:0014
#1021a:00000014
#10314:1414
#10318:00140014
#10412:14
#1041a:0014
#11016:0014
#1101a:14
#10912:0014
#10918:14
#10814:0014
#1081a:24
#11214:14
#1121a:0024
#11210:0041
#11118:0014
#11112:24
#11312:14
#11412:0014
#1151a:14
#11514:0014
#11618:14
#11612:0024
#1171a:14
#11818:0014
#11914:14
#1191a:0014
#12012:14
#1201a:0014
#12216:00140000
#12516:00000014
#05418:0024
#0331a:0000002400000000
#06518:0024
#13012:00260000
#13018:26
#0011a:0000002400000000
#03512:0000002400000000
#03718:0000002400000000
#06614:0024
#0671a:0024
#06912:0024
#12818:26262600
#12812:0026002600000000
#00312:0000002400000000
#0051a:0000002400000000
#03814:0000002400000000
#03912:0024
#0391a:24
#04918:0026
#04912:00000026
#05018:26
#12718:00002626
#12712:0000000000260026
#12912:00260000
#12412:0024
#02918:00343434
#03018:34340000
#06413:34
#0905a:0000006400000000
#0615a:0064
#06352:0054
#0935a:00640000
#09456:0000002400000000
#10652:0000005400000000
#1205a:0064
#12256:00240000
#12556:00000024
#0335a:0000001400000000
#0765a:14
#06558:0014
#13052:00160000
#13058:16
#0015a:0000001400000000
#03552:0000001400000000
#03758:0000001400000000
#06654:0014
#0675a:0014
#06952:0014
#00352:0000001400000000
#0055a:0000001400000000
#01152:14
#0135a:14
#03854:0000001400000000
#0415a:0014
#1085a:14
#11152:14
#1125a:0014
#11652:0014
#12452:0054
#06258:0014
#0095a:14
#06454:0014
#08352:14
#12858:0000000000000016
#12952:0000000000160000
#0013a0:1400002400000000
#003320:1400002400000000
#0053a0:1400002400000000
#0083a0:0014
#0093a0:24
#0183a0:1424
#021340:1424
#022380:1424
#026320:1424
#029380:14343434
#030380:34340000
#0303a0:0024
#032380:0014
#0333a0:3400002400000000
#035320:1400002400000000
#037380:1400002400000000
#038340:1400002400000000
#0403a0:14340000
#0413a0:0024
#045380:0014
#046380:24
#046340:0014
#047340:24
#0473a0:0014
#0483a0:24
#048320:0014
#049320:24
#050380:1626
#051320:1626
#053340:0014
#054340:24
#054380:0014
#055380:24
#056340:0014
#057340:24
#0613a0:0014
#062380:0024
#063320:0014
#064330:34
#064340:0024
#068380:0014
#069380:24
#070340:0014
#071340:24
#075340:1424
#082320:14
#082340:0034
#083320:24
#0903a0:1400003400000000
#091380:24
#0933a0:00140000
#094360:0000005400000000
#0953a0:0024
#096340:1424
#097380:1424
#098380:00000014
#0993a0:0024
#106320:1400003400000000
#107340:0024
#113380:0014
#114380:24
#117340:0014
#118340:24
#1203a0:0014
#122360:00540000
#1243a0:24
#124320:0014
#125360:00000054
#127320:24
#128380:0000000016000026
#129320:0000160000260000
