This file was generated by Ched 2.7.0.0.
#TITLE ""
#ARTIST ""
#DESIGNER ""
#DIFFICULTY 0
#PLAYLEVEL
#SONGID ""
#WAVE ""
#WAVEOFFSET 0
#JACKET ""
#REQUEST "ticks_per_beat 480"
#00002: 4
#BPM01: 205
#00008: 01
#TIL00: "75'0:0.95, 75'60:0.9, 75'120:0.85, 75'180:0.8, 75'240:0.75, 75'300:0.7, 89'480:1, 82'1440:0.71, 82'1560:0.72, 82'1680:0.73, 82'1800:0.74, 83'0:0.75, 83'120:0.76, 83'240:0.77, 83'360:0.78, 83'480:0.79, 83'600:0.8"
#VOLUME: ""
#HISPEED 00
#MEASUREHS 00
#00115:00130013000000001300000000130000
#00118:00001300000000130013000000001300
#00112:00000000000024000000240000000013
#0011a:24240024
#0041a:2414001400000013
#00412:2414001400000000
#00415:0000130000130000
#00418:00000000000000001300001300000000
#00413:00000013
#00410:41
#00516:14000013000000000000000000000000
#00519:0013000000530000
#0051b:0013
#00512:00000013
#0051a:00000000000000000053000000000000
#00518:00000000000000000000005300000000
#00517:00000053
#00513:00000000000000000000000000530000
#00514:0000000000000053
#00515:00000000000000000000000000000053
#00612:0014001400000000
#0061a:2414001400001300
#00618:0000130000130000
#00615:00000000000000001300001300000000
#00613:0000000000000013
#00616:53
#00716:140000000000000054000054
#0071a:0014000014000000
#00712:00140014
#00718:000000001400005400000000
#00714:000000000014000000005400
#0081a:14
#00818:0000130000130000
#00815:0000001300000013
#0081b:00001313
#00812:00001313
#00813:00520000
#00912:13000000000024000000240000003434
#00915:0013130000000000
#00918:00000013000000000000000000000000
#00917:000000000000000000000000000000000000000000000000000000000000000000000000000000000000000000000000000000000000000000000000000000000000000000000000000000000000000000000000000000000000000000000000000000000000000000000000000000000000000000000000000000000000000000000000000000000000000000000000000000000000000000000000000000000000000000000000000000000000000000000000000000000000000000000000000000000000000000000000000000000000000000000000000000000000000000000000000000000000000000000000000000000000000000000000000000000000000000000000000000000000000000000000000000000000000000000000000000000000000000000000000000000000000000000000000000000000000000000000000000000000000000000000000000000000000000000000000000000000000000000000000000000000000000000000000000000000000000000000000000000000000000000000000000000000000000000000000000000000000000000000000000000000000000000000000000000000000000000000000000000000000000000000000000000000000000000000000000000000000000000000000000000000000000000000000000000000000000000000000000000000000000000000000000000000000000000000000000000000000000000000000000000000000000000000000000000000000000000000000000000000000000000000000000000000000000000000000000000000000000000000000000000000000000000000000000000000000000000000000000000000000000000000000000000000000000000000000000000000000000000000000000000000000000000000000000000000000000000000000000000000000000000000000000000000000000000000000000000000000000000000000000000000000000000000000000000000000000000000000000000000000000000000000000000000000000000000000000000000000000000000000000000000000000000000000000000000000000000000000000000000000000000000000000000000000000000000000000000000000000000000000000000000000000000000000000000000000000000000000000000000000000000000000000000000000000000000000000000000000000000000000000000000000000000000000000000000000000000000000000000000000000000000000000000000000000000000000000000000000000000000000000000000000000000000000000000000000000000000000000000000000000000000000000000000000000000000000000000000000000000000000000000000000000000000000000000000000000000000000000000000000000000000000000000000000000000000000000000000000000000000000000000000000000000000000000000000000000000000000000000000000000000000000000000000000000000000000000000000000000000000000000000000000000000000000000000000000000000000000000000000000000000000000000000000000000000000000000000000000000000000000000000000000000000000000000000000000000000000000000000000000000000000000000000000000000000000000000000000000000000000000000000000000000000000000000000000000000000000000000000000000000000000000000000000000000000000000000000000000000000000000000000000000000000000000000000000000000000000000000000000000000000000000000000000000000000000000000000000000000000000000000000000000000000000000000000000000000000000000000000000000000000000000000000000000000000000000000000000000000000013000000000000000000000000000000000000000000000000000000000000000000000000000000000000000000000000000000000000000000000000000000000000000000000000000000000000000000000000000000000000000000000000000000000000000000000000000000000000000000000000000000000000000000000000000000000000000000000000000000000000000000000000000000000000000000000000000000000000000000000000000000000000000000000000000000000000000000000000000000000000000000000000000000000000000000000000000000000000000000000000000000000000000000000000000000000000000000000000000000000000000000000000000000000000000000000000000000000000000000000000000000000000000000000000000000000000000000000000000000000000000000000000000000000000000000000000000000000000000000000000000000000000000000000000000000000000000000000000000000000000000000000000000000000000000000000000000000000000000000000000000000000000000000000000000000000000000000000000000000000000000000000000000000000000000000000000000000000000000000000000
#00916:00000013
#0091a:00000000000024000000240000003434
#01116:1400001200001300
#01118:00120000
#01119:0000001200130000
#01112:0013
#01117:0013
#01114:0000000000130000
#01115:00520000
#0101b:00130013
#01012:0013
#01019:0000005300000013
#01016:00000000000000000000000053130000
#01014:00000000000000000000530000000013
#0101a:00000000005300000000000000000000
#01018:00000000000000530000000000000000
#01017:0053
#01013:00000000000000000053000000000000
#01015:00000000000000000000005300000000
#01212:2414001400000000
#0121a:0014001400001300
#01218:0000130000130000
#01215:00000000000000001300001300000000
#01213:0000000000000013
#01316:14000053
#01314:0013000000530000
#01317:00000013000000000000000000000000
#01312:0013
#0131b:00000013
#01313:00000000000000000053000000000000
#01315:00000000000000000000005300000000
#0131a:00000000000000000000000000530000
#01319:0000000000000053
#01318:00000000000000000000000000000053
#0141a:0014001400000013
#01412:2414001400000000
#01415:0000130000130000
#01418:00000000000000001300001300000000
#01413:00000013
#01417:53
#01516:14530000
#01512:0013001400000000
#01517:00001300000000000000000000130000
#01518:0000001300000000
#0151a:0000000000240000
#01515:0000000000230000
#01519:00000053000000000000000000000000
#0151b:00530000
#01514:00000053000000000000000000000000
#0161a:14000014
#01612:0000131400000000
#0161b:0000000000130000
#01617:00000054000024000000000000000000
#01615:00000000000000000054000024000000
#01619:00540000000000000000000000000000
#01618:00005400000000000000000000540054
#01616:0000540000540054
#01613:00000000000000540000000000000000
#01614:0054
#01712:1414005424000000
#0171a:5400001424000000
#01718:0000000000131313
#01715:00000000000000000000001300130013
#01717:0024000000000000
#01714:00000054005400000000000000000000
#01716:00540000
#01917:14
#01912:00343434343434346400640064006400
#0191a:0000000064646464
#01812:24000000143434343434343434343434
#0181a:24
#02012:0000000000130000
#02015:00001300130000130000000013000000
#02018:00000013000013001300000000001300
#0201b:0000000000130000
#02010:41
#0211b:0013000000131300
#02114:13
#02116:00001300000000000000001300000000
#02112:0000001300000013
#0211a:00000053000000000000000000000000
#02119:00530000
#02118:00000000005300000000000000000000
#02117:0000005300000000
#02218:1300000000131300
#0221b:0013000000000000
#02215:1300131300001300
#02212:0013
#02318:00001300000000530000000000000000
#02315:00000013000000000000000000000000
#0231b:00130013
#02312:0013
#02314:0000000000130013
#02319:0000005300130013
#02316:00000013
#0231a:00000000005300000000000000000000
#02317:0053
#02414:001414000000
#02418:001400000014000000000000
#0241a:000000140000001400140000
#02412:240000140014
#02415:000014
#02417:000000000000000000000014
#02512:14
#02518:0013000000000014
#02515:00130000
#0251a:0000001400140000
#02519:00000014
#02514:00000014
#02617:14
#02612:14000000000000000000000000000000000000000000000000000000000000000000000000000000000000000000000000000000000000000000000000000013
#02615:0000001414000000
#0261b:00000000000000000000000000000000000000000000000000000000000000000000000000000000000000000000000000000000000000000000000000000013
#02718:16000000000000000000000000000013160000000000000000000000000000000000000000000000000000000000000016130000000000000000000000000000
#02715:00000000000000000000000000000000000000000000000000000000000000130000000000000000000000000000000000130000000000000000000000000000
#02712:16000000000000000000000000000000000000000000000000000000000000001600000000000000000000000000001316000000000000000000000000000000
#0271b:00000000000000000000000000000000000000000000000000000000000000000000000000000000000000000000001300000000000000000000000000000000
#02815:00000013000013001300000000001300
#02818:00001300130000130000000013000000
#0281b:0000000000130000
#02812:2500000000130000
#02819:25
#02912:0013000000140000
#02919:13
#02917:0013000000000000
#0291b:0000001300000000
#0291a:00000014
#02916:0000005300000014
#02913:00000053000000000000000000000000
#02914:00530000
#02915:00000000005300000000000000000000
#03012:14140013
#03017:14000023
#0301a:0000001400140000
#03015:0000001400000000
#03014:000000000000000000000000000000000000000000000000000000000000000000000000005300000000000000000000
#03016:000000000000000000000000000000000000005300000000
#03019:000000000000000000000000000000000000000000000000000000000000000000000000006300000000000000000000
#0301b:000000000000000000000000000000000000006300000000
#03116:00130000
#0311a:0014
#03117:000014
#03114:0000000000000014
#03118:00000000000000000000000000000013
#03115:0024
#03112:000024
#03218:00140013
#03215:0000001300000000
#03214:0000000000140000
#03212:24000024
#0321a:0000002400000000
#03318:1400000000000014
#03315:00130000000000000000000000000000
#0331a:0024000014000000
#03313:00000000000000000000001400000000
#03316:0000001400000000
#03319:00000000000000000000002400000000
#03312:0024
#03314:0000000000000024
#03412:1400001414000000
#0341a:2400002424000000
#0351b:1300130023232323
#03512:1313001300000000
#03516:00000000530000005300000000000012
#03519:00530000005300000000000000000000
#03517:0053005300000000
#03514:00000053000000530000000000000000
#03618:12
#03615:0012000000000000
#03617:0000120000000012
#03610:41
#0371a:0012000012000000
#03714:0012000012000000
#03718:00120000
#03716:0000001200000000
#03715:00000012
#03717:0000000000000012
#03819:12
#03817:0000000000220000
#04016:001414000000000000005400
#0401a:00140000
#04012:2424
#04018:0026
#04013:000000000000005400000000
#04014:000054
#04015:000000000000000000540054
#04116:000000000000000014001400000000000000000000120000
#04112:005400140000
#04118:00000000000000000000000000000012
#0411a:14240000
#04115:00000022
#04119:00000022
#04114:54
#04113:005400000000000000000000
#04216:12000000001200000000000000000000
#04218:00000000120012000000001300000000
#04215:0000000000131300
#04219:0023000000000000
#04214:0023000000000000
#0421a:0000000023000024
#04213:0023
#04212:0000000000000024
#04318:1414000000000000
#04314:00140000000000000000000000000000
#04315:00000000000000000000000000000015
#04312:00252525
#04319:00252525
#04416:0013001300130000
#04417:00131300
#04415:00000026
#04414:00000053000000530000005300000000
#04412:00535353
#04419:00000000005300000053000000000000
#0441b:0000005300530000
#04519:0000000000000013
#04512:26000026
#04518:26
#0451b:00000023
#04510:41
#04617:13000013
#04619:0013000000130013
#0461b:00131300
#04613:0000001300000000
#04616:00231300
#04612:23000023
#04614:0023000000000023
#0471b:13130000
#04713:0013000000000000
#04715:0000001313000000
#04718:00000000000000130000130000000000
#04712:0000000000002414
#0471a:00000014
#04716:23
#0481a:1414000014000000
#04812:00000000140000000000001400000000
#04814:00000000000000000014000000000000
#04818:0000000000140000
#04816:0000001400000000
#04815:00000029
#05012:0013000013000013
#05015:14
#05017:00001400000000001300000000000013
#0501a:0000001400000000
#05014:0000000000130000
#05019:0000000000130000
#0501b:00000013
#05016:00000013
#04917:27000013
#04919:00250000
#0491b:0023
#04912:24000024
#04914:00240000
#04916:0024
#05112:1300001313000000
#0511b:0013130000131300
#05116:00000013000000000000001300000000
#05117:00000000000000130000000000000000
#05216:000000120000000000001400
#0521c:1212
#0521a:000000520000000000000000000000520000000000001400
#05212:14005224
#05215:00000000005200000000000000000000
#05214:0000005200000000
#05213:00000000000000520000000000000000
#0521b:00520000000000000052000000000000
#05219:00000052000000000000005200000000
#05218:00520052
#05316:001400
#05312:003434000014000000240000
#05314:0000000000000013
#0531a:000000240000003434240000
#05416:13000013
#05414:0013000000130013
#05412:00131300
#0541a:0000001300000000
#05417:00231300
#0541b:23000023
#05419:0023000000000023
#05512:13130014
#0551a:0013000000002400
#05518:0000001313000013
#05515:00000000000000130000130000001300
#05517:23
#05612:1326
#05618:0013000000000000
#0561b:00130000
#05615:0000001300000000
#05616:00000000000000000000001600000000
#0561a:0000000024000014
#0611b:0000000000000013
#06116:00000000000000000000000000000013
#06112:2527292b
#0611a:00240000
#06118:26
#0611c:0022
#0621b:13130000
#06213:0013000000130000
#06216:00130000
#0621a:00000000000013000000000000000053
#06219:0000000013000053
#06214:0013
#06217:00000013
#06212:00000013
#06215:00000000000000000000000000000013
#06218:00000000000000000000000000530000
#0631b:0013000013132300
#06313:000000530000000000000000000000130000000000000000000000000000000000000000000000000000000000006400
#06316:00000000000000005313001300000000
#06314:5300005300000000
#06312:000000530000000000000000000000000000000000006400
#0631a:00000053000000000000000000000000
#06319:00530000
#06318:00000000005300000000000000000000
#06315:00000000000000530000000000000000
#06514:0000000000000013
#06518:00000000000000000000000000000013
#06515:0029
#06517:00270000
#06519:25000025
#06512:26242225
#06615:13000000000000130000000000000000
#06619:00130000000013000000000000000000
#06616:0013000000000000
#0661a:00240014
#06614:00000000000000000013000000001300
#06618:00000000000000001300000000000013
#06612:00140024
#06617:0000000000130000
#06715:13000000001300000013000000000000
#06719:00130000000000000000000000000000
#06716:0013000000000014
#06718:0000001300130000
#06712:00000000000000130000001300000000
#0671a:00242424
#06819:13
#06814:13
#06812:0014001400000000
#0681a:0014001400002400
#06818:000000000000000000000000000000130000000054000000
#06815:00000000000000000000001300000000
#06816:000000000000000000000054
#06916:000054001400001400280000
#06912:240000000014000014000000
#0691a:00242400
#06914:005400000000000000000000
#07012:0000000000640000000000001300000000000000000000002800000000000000
#07014:00000000000000000064000000000000000000000000000000000000000000001300000000000000000000000000000000000000000000000000000000000000
#07019:0013
#0701b:0000000000130000
#07017:0000001300000000
#07016:0024000000130000
#0701a:00000014
#0711b:0000001300000000
#07119:0013
#07114:0013
#07112:0000000000130000
#07116:0024001300000000
#07117:0000000000130000
#07115:00000013
#07118:00000000000000000064000000000000000000000000000000000000000000000000000000000000000000000000000000000000000000001300000000000000
#0711a:0000000000640000000000000000000000000000000000002400000000000000
#07218:13
#07216:0013130000142400
#07217:0000001313000000
#07317:13
#07316:000000130000000014000000000014000000000000000000
#0731b:0013000000000000
#0731a:000000000014000014000000
#07318:0000000000000013
#07315:00000000000000000000000000000013
#07312:00242424
#07418:1313131313130000
#07415:00130013001300130013001300000000
#0741a:00000024
#07412:00000024
#07718:0012
#07714:00120000
#07716:0000000000120000
#07717:52
#07816:0012000012000000
#07818:0012000000120000
#07814:00000012
#07813:0000005200000000
#0781b:0000005200000000
#07914:00000012
#0791a:00120012
#07916:52
#07918:0052
#08016:1212
#08018:0012000000120000
#08014:0000001200000000
#08114:00005212
#0811a:52000012
#08216:00120000
#08218:00120000
#08213:0000000000006262
#0821b:0000000000006262
#08316:00000012
#08319:00000012
#08314:0000000000000012
#08313:6262620000000000
#0831b:6262620000000000
#08418:1212
#08415:0000000012000052
#0841a:0000520000120000
#08416:00000012
#08419:0052000000000000
#08514:5200120000120000
#0851a:00120000
#08516:0000000012000012
#08518:0000001200001200
#0861a:00001200000000000000001200000000
#08618:0000001212000052
#08614:0000000012000012
#08616:0000005200000000
#08717:1252
#08714:0012000000001200
#0871a:0012000000120000
#08719:0000000000000012
#08817:1212
#08815:0012001200000000
#0881a:00120000
#08819:0000000000120000
#08814:00000012
#08917:12
#08913:0000000000000013
#08918:00000000000000000000000000000013
#0891a:00220024
#08912:00000024
#09014:13000000000000000013000000000000
#09019:00130000000000001300000000000000
#09015:00001300000000130000000000000000
#0901a:00000013000013000000000024000000
#09013:00000000000000000000001300001400
#09018:00000000000000000000130000000014
#09012:00240000
#09114:14280000
#09119:00140000000000000000000000000000
#09115:0014000000000013
#0911a:00000014000000000000000000000000
#09118:00000026
#09112:00000023
#0911f:00000021
#09212:1300130013000023
#09216:0013000000002300
#0921b:0023001300001300
#09217:2300230013000013
#09219:0000000000130000
#09214:0000000000130000
#09314:0013000000000000
#09312:00130014
#09318:0000001300000013
#09315:00000000000000130000000000001300
#0931b:13131300
#09316:2300000000140000
#0931a:00000024
#09310:41
#09412:1400001400002a00
#09415:0013000000000000
#09418:00001300000000000014000000000000
#0941a:00000000140000000000001400000000
#09414:0014
#09416:00000000000000140000140000000000
#0961b:0013000013001300
#09615:13
#09616:0014000013001300
#09612:0000001400130013
#09617:0000000000130000
#09618:00000000000000000000000000000013
#09712:0000001300000014
#09715:13000013000000001300001300000000
#0971b:0013000000130000
#09718:00000000130000130000000013000000
#10115:0000001300000013
#1011a:00000014
#10118:00000000000000130000000000001300
#10112:13131324
#10119:0013000000000000
#1011b:00130000
#10116:0000000000140000
#10117:23
#1021c:12
#10215:0013000000000000
#10212:0000120024000014
#10218:0000001326000000
#10214:00000000000000000000001600000000
#10316:0000120000000014
#10313:00001400000000520000140000000000
#1031c:1212
#10319:00000052000014000000005200000000
#10312:00005224
#10315:00000000005200000000000000000000
#10314:0000005200000000
#1031b:00520000000000000052000000000000
#1031a:0052000000520000
#10318:00520052
#10419:1313
#10414:1313
#10416:0014001400140000
#10412:00140024
#1041a:00240014
#10417:0000000000000014
#10518:0000000014000013
#10512:14
#10515:00001400000000000000000000000013
#10517:00140000
#1051a:0000001400000000
#10514:0024
#09516:00000013
#09512:2800260024000013
#09518:00000000000000000000000000000013
#0951b:23
#09519:00230000
#09517:0023
#0951a:00000024
#09816:000000120000000000001400
#09813:00001400000000520000140000000000
#0981c:1212
#09819:00000052000014000000005200000000
#09812:000000000000520000240014
#09815:00000000005200000000000000000000
#09814:0000005200000000
#0981b:00520000000000000052000000000000
#0981a:0052000000520000
#09818:00520052
#0991a:140000240014000014000000
#09916:001400001400001400000000
#09912:000014000000140000240000
#09918:0000000000000013
#1001b:1300130013000023
#10017:0013000000002300
#10012:0023001300001300
#10016:2300230013000013
#10014:0000000000130000
#10019:0000000000130000
#10618:13000000001300000000000000000000
#10612:0014000025000000
#10615:0000131300000000
#10619:0015
#1061a:0024000000000000
#1061b:00000023
#10616:00000024
#10812:0014
#1081a:0014
#10917:000000000014
#10914:000000000000000000000014
#10912:00000024
#10910:00000041
#11019:1414
#11015:001400140014000000000000
#1101a:001414000000
#11014:000000000000001400000054
#11017:000014
#11012:00000014
#11013:000000000054
#1111a:14001424
#11112:00140000
#11115:540000540014
#11118:000054000000000000000014
#11119:005400000000000000000000
#11113:005400
#11114:000000000054000000000000
#11117:00540000
#11213:1414
#11217:001400140014000000000000
#11212:001414000000
#11218:000000000000001400000000
#11215:000014
#1121a:00000014
#1131a:00140000
#11316:000000000014000000000000
#11319:0015
#11312:14001524
#11318:000000000014
#11314:000000000000000000000014
#11419:14
#11414:001400000000001400000054
#11418:001400140000
#11413:000000140014000000000000
#11417:001400
#1141a:000014
#11416:00000014
#11415:000000000054
#11517:14
#11515:00000000140000000000000000000013
#1151a:00541424
#11518:000054000000000000000000000000000000000000130000
#11512:00005424
#11513:540000000054000000000000
#11519:005400000000
#11514:005400
#1161a:1314
#11616:0013000000000000
#11619:00000013000000000000001300000000
#11612:0000140000130000
#11617:0000001300000000
#11614:00000000000000130000000000000013
#11615:00000014
#1161b:0000000000000013
#11717:14
#11712:0014000016002600
#1171a:00000014000014000000000000000000
#11716:00140000
#11718:0000000000160000
#11816:00140000000000001400000000000000
#11819:00001400000000000000005400000000
#11815:00000014000000000000000000000000
#11818:0000140000540000
#11814:00000000001400000000000000000000
#11817:00000000000014000054000000000000
#11813:00000000000000140000000000000000
#1181a:24000054
#11812:00000024
#11912:00150026
#11918:00000016
#11914:28
#11919:00250000
#11913:002a
#12012:00000000000000000000000000120000
#1201c:00000000000000000000000000120000
#12116:0000000000000000000000000000000000000000000000000000001200000000
#12118:0000000000000000000000000000000000000000000000000000001200000000
#12318:0000000000000000000000000000001200000000000000000000000000000000
#12312:0062000000000000
#12313:00620000
#12314:0000000000000000000000620000000000000000000000000000000000000000
#12315:0000000000000000000000000062000000000000000000000000000000000000
#12316:0000000000000000000000000000006200000000000000000000000000000000
#06412:00001528
#06419:000000000064000000000000150000000000000000000000
#06415:006400000000000000000000000000160000000000000000
#0641b:00000023
#06414:64
#06416:006400000000000000000000
#06417:0064000000000000
#06418:006400000000
#0641a:00640000
#0751f:00000011
#07513:00000052
#07514:0000000000000052
#0751a:00640000
#07512:00640000
#03912:00000014
#0391a:000000240000000000000054
#03919:000054000054
#03918:000000000054000000540000
#03917:000000545400
#03916:000000000000005400000000
#05716:14120000
#0571c:1212
#05717:0000000000000013
#05712:00005224
#05715:00000000005200000000000000000000
#05714:0000005200000000
#05713:00000000000000520000000000000000
#0571b:00520000000000000052000000000000
#0571a:0052000000520000
#05719:00000052000000000000005200000000
#05718:00520052
#0581a:13240000
#05814:13
#05817:0013000000000000
#05812:00140024
#05816:0000001300130000
#05813:0013
#05819:0013
#05918:0014
#05914:0024
#0601b:13
#06012:13000023
#06016:00000028
#00215:26
#00214:0024
#0021b:00333333333333333333333333333333
#00212:00000000000000000033333333333333
#10715:0029
#10717:00270000
#10719:25
#10712:0000000000000000000000000000000000000000000000000000000000000000000000000000000000000000000000000000000000000000000000000000000000000000000000000000000000000000000000000000000000000000000000000000000000000000000000000000000000000000000000000000000000000000000000000000000000000000000000000000000000000000000000000000000000000000000000000000000000000000000000000000000000000000000000000000000000000000000000000000000000000000000000000000000000000000000000000000000000000000000000000000000000000000000000000000000000000000000000000000000000000000000000000000000000000000000000000000000000000000000000000000000000000000000000000000000000000000000000000000000000000000000000000000000000000000000000000000000000000000000000000000000000000000000000000000000000000000000000000000000000000000000000000000000000000000000000000000000000000000000000000000000000000000000000000000000000000000000000000000000000000000000000000000000000000000000000000000000000000000000000002400000000000000000000000000000000000000000000000000000000000000000000000000000000000000000000000000000000000000000000000000000000000000000000000000000000000000000000000000000000000000000000000000000000000000000000000000000000000000000000000000000000000000000000000000000000000000000000000000000000000000000000000000000000000000000000000000000000000000000000000000000000000000000000000000000000000000000000000000000000000000000000000000000000000000000000000000000000000000000000000000000000000000000000000000000000000000000000000000000000000000000000000000000000000000000000000000000000000000000000000000000000000000000000000000000000000000000000000000000000000000000000000000000000000000000000000000000000000000000000000000000000000000000000000000000000000000000000000000000000000000000000000000000000000000000000000000000000000000000000000000000000000000000000000000000000000000000000000000000000000000000000000000000000000000000000000000000000000000000000002200000000000000000000000000000000000000000000000000000000000000000000000000000000000000000000000000000000000000000000000000000000000000000000000000000000000000000000000000000000000000000000000000000000000000000000000000000000000000000000000000000000000000000000000000000000000000000000000000000000000000000000000000000000000000000000000000000000000000000000000000000000000000000000000000000000000000000000000000000000000000000000000000000000000000000000000000000000000000000000000000000000000000000000000000000000000000000000000000000000000000000000000000000000000000000000000000000000000000000000000000000000000000000000000000000000000000000000000000000000000000000000000000000000000000000000000000000000000000000000000000000000000000000000000000000000000000000000000000000000000000000000000000000000000000000000000000000000000000000000000000000000000000000000000000000000000000000000000000000000000000000000000000000000000000000000000000000000000000000000002c8c8c000000000000000000000000000000000000000000000000000000000000000000000000000000000000000000000000000000000000000000000000000000000000000000000000000000000000000000000000000000000000000000000000000000000000000000000000000000000000000000000000000000000000000000000000000000000000000000000000000000000000000000000000000000000000000000000000000000000000000000000000000000000000000000000000000000000000000000000000000000000000000000000000000000000000000000000000000000000000000000000000000000000000000000000000000000000000000000000000000000000000000000000000000000000000000000000000000000000000000000000000000000000000000000000000000000000000000000000000000000000000000000000000000000000000000000000000000000000000000000000000000000000000000000000000000000000000000000000000000000000000000000000000000000000000000000000000000000000000000000000000000000000000000000000000000000000000000000000000000000000000000000000000000000000000000000000000000000000000000000
#10714:24
#1221c:0000000000000000000000000000003200000000000000000000000000000000
#12212:0000000000000000000000000000003200000000000000000000000000000000
#07615:52
#07616:0052000000000000
#07617:00520000
#0761b:0052
#0761a:0000000000520000
#07619:00000052
#07618:0000000000000052
#1271b:0000000000000000000000520000000000000000000000000000000000000000
#12713:0000000000000000000000620000000000000000000000000000000000000000
#12717:0000000000000062000000000000000000000000000000000000000000000000
#12716:00620000
#12715:0000000000000000006200000000000000000000000000000000000000000000
#12714:00000000006200000000000000000000
#12412:0000000000000000000000620000000000000000000000000000000000000000
#12413:0000000000000000000000000000000000620000000000000000000000000000
#12414:00000062
#12515:0062000000000000000000000000000000000000000000000000000000000000
#12516:0000006200000000
#12517:00000062
#12614:0000000000000000000000620000000000000000000000000000000000000000
#00255:66
#00254:0064
#0035b:13
#00352:13
#0045a:0014000000000043
#00452:0000001400000000
#00453:00000033
#00652:0014000000000000
#0065a:0000001400004300
#00653:0000000000000033
#0085a:14
#00952:0000001400640000
#0095a:0000001400640000
#00957:000000000000000000000000000000000000000000000000000000000000000000000000000000000000000000000000000000000000000000000000000000000000000000000000000000000000000000000000000000000000000000000000000000000000000000000000000000000000000000000000000000000000000000000000000000000000000000000000000000000000000000000000000000000000000000000000000000000000000000000000000000000000000000000000000000000000000000000000000000000000000000000000000000000000000000000000000000000000000000000000000000000000000000000000000000000000000000000000000000000000000000000000000000000000000000000000000000000000000000000000000000000000000000000000000000000000000000000000000000000000000000000000000000000000000000000000000000000000000000000000000000000000000000000000000000000000000000000000000000000000000000000000000000000000000000000000000000000000000000000000000000000000000000000000000000000000000000000000000000000000000000000000000000000000000000000000000000000000000000000000000000000000000000000000000000000000000000000000000000000000000000000000000000000000000000000000000000000000000000000000000000000000000000000000000000000000000000000000000000000000000000000000000000000000000000000000000000000000000000000000000000000000000000000000000000000000000000000000000000000000000000000000000000000000000000000000000000000000000000000000000000000000000000000000000000000000000000000000000000000000000000000000000000000000000000000000000000000000000000000000000000000000000000000000000000000000000000000000000000000000000000000000000000000000000000000000000000000000000000000000000000000000000000000000000000000000000000000000000000000000000000000000000000000000000000000000000000000000000000000000000000000000000000000000000000000000000000000000000000000000000000000000000000000000000000000000000000000000000000000000000000000000000000000000000000000000000000000000000000000000000000000000000000000000000000000000000000000000000000000000000000000000000000000000000000000000000000000000000000000000000000000000000000000000000000000000000000000000000000000000000000000000000000000000000000000000000000000000000000000000000000000000000000000000000000000000000000000000000000000000000000000000000000000000000000000000000000000000000000000000000000000000000000000000000000000000000000000000000000000000000000000000000000000000000000000000000000000000000000000000000000000000000000000000000000000000000000000000000000000000000000000000000000000000000000000000000000000000000000000000000000000000000000000000000000000000000000000000000000000000000000000000000000000000000000000000000000000000000000000000000000000000000000000000000000000000000000000000000000000000000000000000000000000000000000000000000000000000000000000000000000000000000000000000000000000000000000000000000000000000000000000000000000000000000000000000000000000000000000000000000000000000000000000000000000000000000000000000000000000023000000000000000000000000000000000000000000000000000000000000000000000000000000000000000000000000000000000000000000000000000000000000000000000000000000000000000000000000000000000000000000000000000000000000000000000000000000000000000000000000000000000000000000000000000000000000000000000000000000000000000000000000000000000000000000000000000000000000000000000000000000000000000000000000000000000000000000000000000000000000000000000000000000000000000000000000000000000000000000000000000000000000000000000000000000000000000000000000000000000000000000000000000000000000000000000000000000000000000000000000000000000000000000000000000000000000000000000000000000000000000000000000000000000000000000000000000000000000000000000000000000000000000000000000000000000000000000000000000000000000000000000000000000000000000000000000000000000000000000000000000000000000000000000000000000000000000000000000000000000000000000000000000000000000000000000000000000000000000000000000
#00956:00000023
#01052:34
#0105a:44
#01156:14
#01252:0014000000000000
#0125a:0000001400004300
#01253:0000000000000033
#0145a:0014000000000043
#01452:0000001400000000
#01453:00000033
#0155a:0000000000440000
#01552:0000003400000000
#01557:00000000000000000000000000230000
#01555:0000000000630000
#01655:34000034
#01657:0000004400000000
#01757:0044000000000000
#01752:0014
#0185a:14
#01852:00240000
#02052:14
#0205a:14
#02058:0000000000000013
#01957:64
#02152:0000006300000000
#02258:6300001300006300
#0225b:0023000000000000
#02255:1300005300006300
#02252:0023
#02552:14
#0255a:0000001400000000
#02657:64
#02652:14000000000000000000000000000000000000000000000000000000000000000000000000000000000000000000000000000000000000000000000000000023
#02655:0054
#0265b:00000000000000000000000000000000000000000000000000000000000000000000000000000000000000000000000000000000000000000000000000000023
#02758:66000000000000000000000000000023560000000000000000000000000000000000000000000000000000000000000066230000000000000000000000000000
#02755:00000000000000000000000000000000000000000000000000000000000000230000000000000000000000000000000000230000000000000000000000000000
#02752:56000000000000000000000000000000000000000000000000000000000000006600000000000000000000000000002356000000000000000000000000000000
#0275b:00000000000000000000000000000000000000000000000000000000000000000000000000000000000000000000002300000000000000000000000000000000
#02852:35
#02859:45
#02855:0000000000000013
#0295b:0000005300000000
#03057:64
#03052:14
#0305a:0000001400000000
#03055:0000005400000000
#03156:00130000
#0315b:00130000
#03157:000064
#03252:34000034
#0325a:0000004400000000
#0335a:0044000000000000
#0345a:4464
#03452:3464
#03657:0000000000000012
#03859:0000000000120000
#03857:0000000000220000
#03952:00360000
#04058:0046
#04352:00350035
#04359:00004565
#04355:00000000000000000000000000000025
#04455:00000016
#04552:16000036
#04558:16
#0465b:00130000
#0475b:13
#04755:0013
#04752:0000000000000014
#0485a:0014000000000000
#04855:00000049
#04957:47000063
#04959:00450000
#0495b:0043
#04952:00000014
#05057:0014000000000000
#05052:0063000000000000
#0505b:00000013
#05152:1313
#0515b:00130013
#05452:00130000
#05552:13
#05558:0000000013000013
#05555:0000000000000063
#05655:0013000000000000
#05652:2366
#05658:0053000000000000
#0565b:00230000
#0565a:0014
#05656:00000000000000000000002600000000
#0535a:00000014
#06152:3537393b
#06052:53000033
#0605b:63
#0635b:00000013
#0645a:00140000
#0645b:00000043
#06555:0049
#06557:00470000
#06559:45
#06852:0014003400000000
#0685a:0014004400000000
#06956:00000068
#0705b:0013000000000000
#07052:00000058
#0705a:00000014
#07152:0013000000000000
#07155:00000063
#07258:53
#07256:00630064
#07257:0053
#0725b:00000013
#07352:00000014
#07856:0062000000000000
#07858:0062000000000000
#07854:00000052
#08154:00000062
#0815a:00000062
#08256:00620000
#08258:00620000
#08353:00120000
#0835b:00120000
#0865a:00001200000000000000002200000000
#08654:0012
#08658:0062
#08754:0062000000000000
#0895a:00120014
#09252:00130000
#0935b:1313
#09358:0000000000000043
#0965b:0053000000001300
#09656:0014000000000000
#10155:0000000000000013
#10158:0000000000000053
#10152:1313
#1025c:22
#10255:0063000000000000
#10252:00223400
#10254:00000000000000000000002600000000
#10258:0013000056000000
#10558:0054
#10554:0054
#10552:54000013
#10555:0024000000000000
#10557:00640000
#1055a:0000002400000000
#09158:00000046
#09154:00180000
#09452:0000003a
#09455:0033000000000000
#09552:38363400
#0955a:00000014
#10352:00000014
#1045a:00140064
#10452:00000014
#10454:13
#10459:0013
#10457:0000000000000024
#09755:1313
#09758:00130013
#09952:00000014
#1005b:00130000
#1065a:0014000000000000
#10652:0015
#1065b:00000043
#10755:0049
#10757:00470000
#10759:45
#10752:000000000000000000000000000000000000000000000000000000000000000000000000000000000000000000000000000000000000000000000000000000000000000000000000000000000000000000000000000000000000000000000000000000000000000000000000000000000000000000000000000000000000000000000000000000000000000000000000000000000000000000000000000000000000000000000000000000000000000000000000000000000000000000000000000000000000000000000000000000000000000000000000000000000000000000000000000000000000000000000000000000000000000000000000000000000000000000000000000000000000000000000000000000000000000000000000000000000000000000000000000000000000000000000000000000000000000000000000000000000000000000000000000000000000000000000000000000000000000000000000000000000000000000000000000000000000000000000000000000000000000000000000000000000000000000000000000000000000000000000000000000000000000000000000000000000000000000000000000000000000000000000000000000000000000000000000000000000000000000000000000000000000000000000000000000000000000000000000000000000000000000000000000000000000000000000000000000000000000000000000000000000000000000000000000000000000000000000000000000000000000000000000000000000000000000000000000000000000000000000000000000000000000000000000000000000000000000000000000000000000000000000000000000000000000000000000000000000000000000000000000000000000000000000000000000000000000000000000000000000000000000000000000000000000000000000000000000000000000000000000000000000000000000000000000000000000000000000000000000000000000000000000000000000000000000000000000000000000000000000000000000000000000000000000000000000000000000000000000000000000000000000000000000000000000000000000000000000000000000000000000000000000000000000000000000000000000000000000000000000000000000000000000000000000000000000000000000000000000000000000000000000000000000000000000000000000000000000000000000000000000000000000000000000000000000000000000000000000000000000000000000000000000000000000000000000000000000000000000000000000000000000000000000000000000000000000000000000000000000000000000000000000000000000000000000000000000000000000000000000000000000000000000000000000000000000000000000000000000000000000000000000000000000000000000000000000000000000000000000000000000000000000000000000000000000000000000000000000000000000000000000000000000000000000000000000000000000000000000000000000000000000000000000000000000000000000000000000000000000000000000000000000000000000000000000000000000000000000000000000000000000000000000000000000000000000000000000000000000000000000000000000000000000000000000000000000000000000000000000000000000000000000000000000000000000000000000000000000000000000000000000000000000000000000000000000000000000000000000000000000000000000000000000000000000000000000000000000000000000000000000000000000000000000000000000000000000000000000000000000000000000000000000000000000000000000000000000000000000000000000006c6c000000000000000000000000000000000000000000000000000000000000000000000000000000000000000000000000000000000000000000000000000000000000000000000000000000000000000000000000000000000000000000000000000000000000000000000000000000000000000000000000000000000000000000000000000000000000000000000000000000000000000000000000000000000000000000000000000000000000000000000000000000000000000000000000000000000000000000000000000000000000000000000000000000000000000000000000000000000000000000000000000000000000000000000000000000000000000000000000000000000000000000000000000000000000000000000000000000000000000000000000000000000000000000000000000000000000000000000000000000000000000000000000000000000000000000000000000000000000000000000000000000000000000000000000000000000000000000000000000000000000000000000000000000000000000000000000000000000000000000000000000000000000000000000000000000000000000000000000000000000000000000000000000000000000000000000000000000000000000000
#10958:00460000
#10952:00360000
#10852:0024
#1085a:0024
#1115a:0014
#11155:0014
#1135a:00140000
#11359:0015
#11352:6415
#1125a:00000064
#1155a:0014
#11552:0014
#1165a:1314
#11652:00140000
#11655:00000014
#11757:14
#11756:00140000
#11752:00001666
#11758:0000000000160000
#1185a:00000044
#11852:00000034
#11952:00350066
#11959:00450000
#11958:00000066
#12052:00000000000000000000000000620000
#1205c:00000000000000000000000000520000
#12158:0000000000000000000000000000000000000000000000000000006200000000
#12156:0000000000000000000000000000000000000000000000000000006200000000
#12358:0000000000000000000000000000006200000000000000000000000000000000
#0795a:00620000
#09052:00140000
#0905a:00000014
#05958:0054
#05954:0054
#05752:00000014
#0585a:00140000
#05852:00000014
#002350:16
#0023b0:00333333333333333333333333333333
#0033b0:23
#002341:0014
#002321:00000000000000000033333333333333
#003321:23
#0053b1:0000132300000000
#005360:0000001323000000
#008360:0012000000000000
#008350:003200000000
#008340:000000000032000000000000000000000000000000000000
#008330:00220000
#009380:1323000000000000
#0093a0:00000000000000000000140000003434
#009370:000000000000000000000000000000000000000000000000000000000000000000000000000000000000000000000000000000000000000000000000000000000000000000000000000000000000000000000000000000000000000000000000000000000000000000000000000000000000000000000000000000000000000000000000000000000000000000000000000000000000000000000000000000000000000000000000000000000000000000000000000000000000000000000000000000000000000000000000000000000000000000000000000000000000000000000000000000000000000000000000000000000000000000000000000000000000000000000000000000000000000000000000000000000000000000000000000000000000000000000000000000000000000000000000000000000000000000000000000000000000000000000000000000000000000000000000000000000000000000000000000000000000000000000000000000000000000000000000000000000000000000000000000000000000000000000000000000000000000000000000000000000000000000000000000000000000000000000000000000000000000000000000000000000000000000000000000000000000000000000000000000000000000000000000000000000000000000000000000000000000000000000000000000000000000000000000000000000000000000000000000000000000000000000000000000000000000000000000000000000000000000000000000000000000000000000000000000000000000000000000000000000000000000000000000000000000000000000000000000000000000000000000000000000000000000000000000000000000000000000000000000000000000000000000000000000000000000000000000000000000000000000000000000000000000000000000000000000000000000000000000000000000000000000000000000000000000000000000000000000000000000000000000000000000000000000000000000000000000000000000000000000000000000000000000000000000000000000000000000000000000000000000000000000000000000000000000000000000000000000000000000000000000000000000000000000000000000000000000000000000000000000000000000000000000000000000000000000000000000000000000000000000000000000000000000000000000000000000000000000000000000000000000000000000000000000000000000000000000000000000000000000000000000000000000000000000000000000000000000000000000000000000000000000000000000000000000000000000000000000000000000000000000000000000000000000000000000000000000000000000000000000000000000000000000000000000000000000000000000000000000000000000000000000000000000000000000000000000000000000000000000000000000000000000000000000000000000000000000000000000000000000000000000000000000000000000000000000000000000000000000000000000000000000000000000000000000000000000000000000000000000000000000000000000000000000000000000000000000000000000000000000000000000000000000000000000000000000000000000000000000000000000000000000000000000000000000000000000000000000000000000000000000000000000000000000000000000000000000000000000000000000000000000000000000000000000000000000000000000000000000000000000000000000000000000000000000000000000000000000000000000000000000000000000000000000000000000000000000000000000000000000000000000000000000000000000000000000000000000000053000000000000000000000000000000000000000000000000000000000000000000000000000000000000000000000000000000000000000000000000000000000000000000000000000000000000000000000000000000000000000000000000000000000000000000000000000000000000000000000000000000000000000000000000000000000000000000000000000000000000000000000000000000000000000000000000000000000000000000000000000000000000000000000000000000000000000000000000000000000000000000000000000000000000000000000000000000000000000000000000000000000000000000000000000000000000000000000000000000000000000000000000000000000000000000000000000000000000000000000000000000000000000000000000000000000000000000000000000000000000000000000000000000000000000000000000000000000000000000000000000000000000000000000000000000000000000000000000000000000000000000000000000000000000000000000000000000000000000000000000000000000000000000000000000000000000000000000000000000000000000000000000000000000000000000000000000000000000000000000000
#0103a0:24
#009321:00000000000000000000140000003434
#009361:00000053
#010321:24
#011321:0012000000000000
#011331:003200000000
#011341:000000000032000000000000000000000000000000000000
#011351:00220000
#0113a1:00000000000000000000000014003434
#0123a1:24
#013321:0000132300000000
#013370:0000001323000000
#015350:0000000000130000
#015370:00000000000000000000000000530000
#016350:24
#018320:14000000343434343434343434343434
#019370:34
#019320:000000000000000000000000000000000000000000000000000000000000000000000000000000000000000000000000000000000000000000000000000000000000000000000000000000000000000000000000000000000000000000000000000000000000000000000000000000000000000000000000340000000000000000000000000000000000000000000000000000000000000000000000000000000000000000000000000000000000000000000000000000000000000000000000000000000000000000000000000000000000000000000000000000000000000000000000000000000000000000000000340000000000000000000000000000000000000000000000000000000000000000000000000000000000000000000000000000000000000000000000000000000000000000000000000000000000000000000000000000000000000000000000000000000000000000000000000000000000000000000000340000000000000000000000000000000000000000000000000000000000000000000000000000000000000000000000000000000000000000000000000000000000000000000000000000000000000000000000000000000000000000000000000000000000000000000000000000000000000000000000340000000000000000000000000000000000000000000000000000000000000000000000000000000000000000000000000000000000000000000000000000000000000000000000000000000000000000000000000000000000000000000000000000000000000000000000000000000000000000000000340000000000000000000000000000000000000000000000000000000000000000000000000000000000000000000000000000000000000000000000000000000000000000000000000000000000000000000000000000000000000000000000000000000000000000000000000000000000000000000000340000000000000000000000000000000000000000000000000000000000000000000000000000000000000000000000000000000000000000000000000000000000000000000000000000000000000000000000000000000000000000000000000000000000000000000000000000000000000000000000340000000000000000000000000000000000000000000000000000000000000000000000000000000000000000000000000000000000000000000000000000000000000000000000000000000000000000000000000000000000000000000000000000000000000000000000000000000000000000000054005600000000000000000000000000000000000000000000000000000000000000000000000000000000000000000000000000000000000000000000000000000000000000000000000000000000000000000000000000000000000000000000000000000000000000000000000000000000000000000000000000000000000000000000000000000000000000000000000000000000000000000000000000000000000000000000000000000000000000000000000000000000000000000000000000000000000000000000000000000000000000000000000000000000000000000000000000000000000000000054005600000000000000000000000000000000000000000000000000000000000000000000000000000000000000000000000000000000000000000000000000000000000000000000000000000000000000000000000000000000000000000000000000000000000000000000000000000000000000000000000000000000000000000000000000000000000000000000000000000000000000000000000000000000000000000000000000000000000000000000000000000000000000000000000000000000000000000000000000000000000000000000000000000000000000000000000000000000000000000054005600000000000000000000000000000000000000000000000000000000000000000000000000000000000000000000000000000000000000000000000000000000000000000000000000000000000000000000000000000000000000000000000000000000000000000000000000000000000000000000000000000000000000000000000000000000000000000000000000000000000000000000000000000000000000000000000000000000000000000000000000000000000000000000000000000000000000000000000000000000000000000000000000000000000000000000000000000000000000000054005600000000000000000000000000000000000000000000000000000000000000000000000000000000000000000000000000000000000000000000000000000000000000000000000000000000000000000000000000000000000000000000000000000000000000000000000000000000000000000000000000000000000000000000000000000000000000000000000000000000000000000000000000000000000000000000000000000000000000000000000000000000000000000000000000000000000000000000000000000000000000000000000000000000000000000000000000000000000000000000
#020320:24
#0193a1:000000000000000000000000000000000000000000000000000000000000000000000000000000000000000000000000000000000000000000000000000000000000000000000000000000000000000000000000000000000000000000000000000000000000000000000000000000000000000000000000000000000000000000000000000000000000000000000000000000000000000000000000000000000000000000000000000000000000000000000000000000000000000000000000000000000000000000000000000000000000000000000000000000000000000000000000000000000000000000000000000000000000000000000000000000000000000000000000000000000000000000000000000000000000000000000000000000000000000000000000000000000000000000000000000000000000000000000000000000000000000000000000000000000000000000000000000000000000000000000000000000000000000000000000000000000000000000000000000000000000000000000000000000000000000000000000000000000000000000000000000000000000000000000000000000000000000000000000000000000000000000000000000000000000000000000000000000000000000000000000000000000000000000000000000000000000000000000000000000000000000000000000000000000000000000000000000000000000000000000000000000000000000000000000000000000000000000000000000000000000000000000000000000000000000000000000000000000000000000000000000000000000000000000000000000000000000000000000000000000000000000000000000000000000000000000000000000000000000000000000000000000000000000000000000000000000000000000000000000000000000000000000000000000000000000000000000000000000000000000000000000000000000000000000000000000000000000000000000000000000000000000000000000000000000000000000000000000000000000000000000000000000000000000000000000000000000000000000000000000000000000000000000000000000000000000000000000000000000000000000000000000000000000000000000000000000000000000000000000000000000000000000000000000000000000000000000000000000000000000000000000000000000000000000000000000000000000000000000000000000000000000000000000000000000000000000000000000000000000000000140000000000000000000000000000000000000000000000000000000000000000000000000000000000000000000000000000000000000000000000000000000000000000000000000000000000000000000000000000000000000000000000000000000000000000000000000000000000000000000000000000000000000000000000000000000000000000000000000000000000000000000000000000000000000000000000000000000000000000000000000000000000000000000000000000000000000000000000000000000000000000000000000000000000000000000000000000000000000000000054000000000000000000000000000000000000000000000000000000000000000000000000000000000000000000000000000000000000000000000000000000000000000000000000000000000000000000000000000000000000000000000000000000000000000000000000000000000000000000000000000000000000000000000000000000000000000000000000000000000000000000000000000000000000000000000000000000000000000000000000000000000000000000000000000000000000000000000000000000000000000000000000000000000000000000000000000000000000000000000054000000000000000000000000000000000000000000000000000000000000000000000000000000000000000000000000000000000000000000000000000000000000000000000000000000000000000000000000000000000000000000000000000000000000000000000000000000000000000000000000000000000000000000000000000000000000000000000000000000000000000000000000000000000000000000000000000000000000000000000000000000000000000000000000000000000000000000000000000000000000000000000000000000000000000000000000000000000000000000000054000000000000000000000000000000000000000000000000000000000000000000000000000000000000000000000000000000000000000000000000000000000000000000000000000000000000000000000000000000000000000000000000000000000000000000000000000000000000000000000000000000000000000000000000000000000000000000000000000000000000000000000000000000000000000000000000000000000000000000000000000000000000000000000000000000000000000000000000000000000000000000000000000000000000000000000000000000000000000000000000
#019381:000000000000000000000000000000000000000000000000000000000000000000000000000000000000000000000000000000000000000000000000000000000000000000000000000000000000000000000000000000000000000000000000000000000000000000000000000000000000000000000000000000000000000000000000000000000000000000000000000000000000000000000000000000000000000000000000000000000000000000000000000000000000000000000000000000000000000000000000000000000000000000000000000000000000000000000000000000000000000000000000000000000000000000000000000000000000000000000000000000000000000000000000000000000000000000000000000000000000000000000000000000000000000000000000000000000000000000000000000000000000000000000000000000000000000000000000000000000000000000000000000000000000000000000000000000000000000000000000000000000000000000000000000000000000000000000000000000000000000000000000000000000000000000000000000000000000000000000000000000000000000000000000000000000000000000000000000000000000000000000000000000000000000000000000000000000000000000000000000000000000000000000000000000000000000000000000000000000000000000000000000000000000000000000000000000000000000000000000000000000000000000000000000000000000000000000000000000000000000000000000000000000000000000000000000000000000000000000000000000000000000000000000000000000000000000000000000000000000000000000000000000000000000000000000000000000000000000000000000000000000000000000000000000000000000000000000000000000000000000000000000000000000000000000000000000000000000000000000000000000000000000000000000000000000000000000000000000000000000000000000000000000000000000000000000000000000000000000000000000000000000000000000000000000000000000000000000000000000000000000000000000000000000000000000000000000000000000000000000000000000000000000000000000000000000000000000000000000000000000000000000000000000000000000000000000000000000000000000000000000000000000000000000000000000000000000000000000000000000000000000005600000000000000000000000000000000000000000000000000000000000000000000000000000000000000000000000000000000000000000000000000000000000000000000000000000000000000000000000000000000000000000000000000000000000000000000000000000000000000000000000000000000000000000000000000000000000000000000000000000000000000000000000000000000000000000000000000000000000000000000000000000000000000000000000000000000000000000000000000000000000000000000000000000000000000000000000000000000000000000000005600000000000000000000000000000000000000000000000000000000000000000000000000000000000000000000000000000000000000000000000000000000000000000000000000000000000000000000000000000000000000000000000000000000000000000000000000000000000000000000000000000000000000000000000000000000000000000000000000000000000000000000000000000000000000000000000000000000000000000000000000000000000000000000000000000000000000000000000000000000000000000000000000000000000000000000000000000000000000000000005600000000000000000000000000000000000000000000000000000000000000000000000000000000000000000000000000000000000000000000000000000000000000000000000000000000000000000000000000000000000000000000000000000000000000000000000000000000000000000000000000000000000000000000000000000000000000000000000000000000000000000000000000000000000000000000000000000000000000000000000000000000000000000000000000000000000000000000000000000000000000000000000000000000000000000000000000000000000000000000005600000000000000000000000000000000000000000000000000000000000000000000000000000000000000000000000000000000000000000000000000000000000000000000000000000000000000000000000000000000000000000000000000000000000000000000000000000000000000000000000000000000000000000000000000000000000000000000000000000000000000000000000000000000000000000000000000000000000000000000000000000000000000000000000000000000000000000000000000000000000000000000000000000000000000000000000000000000000000000000
#0203a1:24
#021321:0000001300000000
#021361:0000000000230000
#022381:1300332300000000
#0223b1:0053000000000000
#022350:0000001300333300
#022320:0053
#023320:23
#022381:00000013
#0233b1:23
#025321:0000001400240000
#026371:14
#0263b1:00000000000000000000000000000000530000000000000000000000000000000000000000000000000000000000000000000000000000000000000000000053
#027381:36530000000000000000000000000053360000000000000000000000000000000000000000000000000000000000000036530000000000000000000000000000
#0273b1:00000000000000000000000000000000005300000000000000000000000000000000000000000000000000000000005300000000000000000000000000000000
#028391:25
#026350:0014
#026320:00000000000000000000000000000000000000000000000000000000000000000000000000000000000000000000000053000000000000000000000000000053
#027320:36000000000000000000000000000000000000000000000000000000000000003653000000000000000000000000005336000000000000000000000000000000
#027350:00530000000000000000000000000053000000000000000000000000000000530000000000000000000000000000000000530000000000000000000000000000
#028320:25
#0293b0:0000001300000000
#029370:0000000000230000
#030370:14
#0303a0:00240000
#030350:0000001400000000
#030320:0000000000240000
#030370:00000013
#0303b0:00000000000000000000000000000000000000000000000000000000000000000000000000000000000000000000000000000000000000000000000000000000000000000000000000000000000000000000000000000000000000000000000000000000000000000000000000000000000000000000000000000000000000000000000000000000000000000000000000000000000000000000000000000000000000000000000000000000000000000000000000000000000000000000000000000000000000000000000000000000000000000000000000000000000000000000000000000000000000000000000000000000000000000000000000000000000000000000000000000000000000000000000000000000000000000000000000000000000000000000000000000000000000000000000000000000000000000000000000000000000000000000000000000000000000000000000000000000000000000000000000000000000000000000000000000000000000000000000000000000000000000000000000000000000000000000000000000000000000000000000000000000000000000000000000000000000000000000000000000000000000000000000000000000000000000000000000000000000000000000000000000000000000000000000000000000000000000000000000000053000000000000000000000000000000000000000000000000000000000000000000000000000000000000000000000000000000000000000000000000000000000000000000000000000000000000000000000000000000000000000000000000000000000000000000000000000000000000000000000000000000000000000000000000
#0313b0:00230000
#031370:000014
#0313a0:0000000000000024
#034320:0014
#034350:00000023
#0343a1:0014
#034381:00000023
#036391:0000001200220000
#036350:0000000000120022
#038350:0012002200000000
#038391:0000001200220000
#038370:0000000000120000
#039320:00260000
#043390:00000015
#043350:00000000000000000000000000000055
#044390:0025000000000000
#049370:00000013
#0503b0:23
#050320:0013000000000000
#050360:0000002300000000
#053360:14
#053320:003434240000000000000000
#053360:0014
#0533a0:000000000000003434240000
#055350:0000000000000013
#056320:53
#056350:0023000000000000
#056381:0013002300000000
#0563b1:00530000
#056321:0000000016000026
#056361:00000000000000000000005600000000
#0583a1:00000014
#0593a1:24
#059340:14240000
#059381:00143400
#0603b1:33
#060381:0023
#059340:0014
#060320:33
#060350:0023
#069360:00000018
#0703b0:0023000000000000
#070320:00000018
#071320:0023000000000000
#071350:00000013
#072320:23
#072381:13
#0723b1:00230000
#072360:00130000
#072320:0023
#072371:0013
#0723b1:00000023
#072360:00000014
#073320:24
#0743a0:00000014
#0753a0:00240000
#074321:00000014
#075321:00240000
#077381:0000000000001232
#078381:0032000000000000
#0783b1:0000002200000000
#078360:0012000000000000
#078330:0000002200000000
#078340:00000012
#079360:22
#0793a0:00120000
#079380:0022
#0803a0:00000012
#0813a0:22
#081340:00122200
#0813a0:00000012
#082380:0032320000000000
#0823b0:00000022
#081341:00000012
#082361:0032320000000000
#082331:00000022
#086361:0012002200000000
#086381:0000000012000022
#0863a1:00000000000000000000005200000000
#087341:0012000000000000
#087371:0022
#0963b1:0013000000000000
#096371:0000002300000000
#101381:0000000000000013
#1023c1:52
#102381:0023000000000000
#102350:0013002300000000
#102320:00520000
#102380:0000000016000026
#102340:00000000000000000000005600000000
#1043a0:00000014
#104370:0000000000000054
#1053a0:24
#105321:14240000
#105351:0054000000000000
#105370:00140000
#1053a0:0000005400000000
#105380:0034
#1053b0:00000023
#105341:0014
#105321:00000023
#107321:000000000000000000000000000000000000000000000000000000000000000000000000000000000000000000000000000000000000000000000000000000000000000000000000000000000000000000000000000000000000000000000000000000000000000000000000000000000000000000000000000000000000000000000000000000000000000000000000000000000000000000000000000000000000000000000000000000000000000000000000000000000000000000000000000000000000000000000000000000000000000000000000000000000000000000000000000000000000000000000000000000000000000000000000000000000000000000000000000000000000000000000000000000000000000000000000000000000000000000000000000000000000000000000000000000000000000000000000000000000000000000000000000000000000000000000000000000000000000000000000000000000000000000000000000000000000000000000000000000000000000000000000000000000000000000000000000000000000000000000000000000000000000000000000000000000000000000000000000000000000000000000000000000000000000000000000000000000000000000000000000000000000000000000000000000000000000000000000000000000000000000000000000000000000000000000000000000000000000000000000000000000000000000000000000000000000000000000000000000000000000000000000000000000000000000000000000000000000000000000000000000000000000000000000000000000000000000000000000000000000000000000000000000000000000000000000000000000000000000000000000000000000000000000000000000000000000000000000000000000000000000000000000000000000000000000000000000000000000000000000000000000000000000000000000000000000000000000000000000000000000000000000000000000000000000000000000000000000000000000000000000000000000000000000000000000000000000000000000000000000000000000000000000000000000000000000000000000000000000000000000000000000000000000000000000000000000000000000000000000000000000000000000000000000000000000000000000000000000000000000000000000000000000000000000000000000000000000000000000000000000000000000000000000000000000000000000000000000000000000000000000000000000000000000000000000000000000000000000000000000000000000000000000000000000000000000000000000000000000000000000000000000000000000000000000000000000000000000000000000000000000000000000000000000000000000000000000000000000000000000000000000000000000000000000000000000000000000000000000000000000000000000000000000000000000000000000000000000000000000000000000000000000000000000000000000000000000000000000000000000000000000000000000000000000000000000000000000000000000000000000000000000000000000000000000000000000000000000000000000000000000000000000000000000000000000000000000000000000000000000000000000000000000000000000000000000000000000000000000000000000000000000000000000000000000000000000000000000000000000000000000000000000000000000000000000000000000000000000000000000000000000000000000000000000000000000000000000000000000000000000000000000000000000000000000000000000000000000000000000000000000000000000000000000000000000000000000000000000000000000001c00000000000000000000000000000000000000000000000000000000000000000000000000000000000000000000000000000000000000000000000000000000000000000000000000000000000000000000000000000000000000000000000000000000000000000000000000000000000000000000000000000000000000000000000000000000000000000000000000000000000000000000000000000000000000000000000000000000000000000000000000000000000000000000000000000000000000000000000000000000000000000000000000000000000000000000000000000000000000000000000000000000000000000000000000000000000000000000000000000000000000000000000000000000000000000000000000000000000000000000000000000000000000000000000000000000000000000000000000000000000000000000000000000000000000000000000000000000000000000000000000000000000000000000000000000000000000000000000000000000000000000000000000000000000000000000000000000000000000000000000000000000000000000000000000000000000000000000000000000000000000000000000000000000000000000000000000000000000000000000
#108321:0054
#109381:00260000
#107320:000000000000000000000000000000000000000000000000000000000000000000000000000000000000000000000000000000000000000000000000000000000000000000000000000000000000000000000000000000000000000000000000000000000000000000000000000000000000000000000000000000000000000000000000000000000000000000000000000000000000000000000000000000000000000000000000000000000000000000000000000000000000000000000000000000000000000000000000000000000000000000000000000000000000000000000000000000000000000000000000000000000000000000000000000000000000000000000000000000000000000000000000000000000000000000000000000000000000000000000000000000000000000000000000000000000000000000000000000000000000000000000000000000000000000000000000000000000000000000000000000000000000000000000000000000000000000000000000000000000000000000000000000000000000000000000000000000000000000000000000000000000000000000000000000000000000000000000000000000000000000000000000000000000000000000000000000000000000000000000000000000000000000000000000000000000000000000000000000000000000000000000000000000000000000000000000000000000000000000000000000000000000000000000000000000000000000000000000000000000000000000000000000000000000000000000000000000000000000000000000000000000000000000000000000000000000000000000000000000000000000000000000000000000000000000000000000000000000000000000000000000000000000000000000000000000000000000000000000000000000000000000000000000000000000000000000000000000000000000000000001c00000000000000000000000000000000000000000000000000000000000000000000000000000000000000000000000000000000000000000000000000000000000000000000000000000000000000000000000000000000000000000000000000000000000000000000000000000000000000000000000000000000000000000000000000000000000000000000000000000000000000000000000000000000000000000000000000000000000000000000000000000000000000000000000000000000000000000000000000000000000000000000000000000000000000000000000000000000000000000000
#1083a0:0054
#109320:00260000
#1123a0:00000014
#113370:24
#113321:14
#113351:00240000
#117321:00000016
#118361:24
#119321:00000016
#120321:00000000000000000000000000320000
#121361:0000000000000000000000003200000000000000000000000000003200000000
#122321:0000000000000000000000000000003200000000000000000000000000000000
#123321:0022000000000000
#119380:00000016
#1203c0:00000000000000000000000000320000
#121380:0000000000000000000000003200000000000000000000000000003200000000
#1223c0:0000000000000000000000000000003200000000000000000000000000000000
#1233c0:0032000000000000
#1233b0:00320000
#1233a0:0000000000000000000000320000000000000000000000000000000000000000
#123390:0000000000000000000000000032000000000000000000000000000000000000
#123380:0000000000000000000000000000003200000000000000000000000000000000
#1253b0:00000052
#126380:0000000000000000000000520000000000000000000000000000000000000000
#1273b0:0000000000000000000000220000000000000000000000000000000000000000
#0059b0:0013
#005970:00000023
#005921:00000013
#006961:23
#0079a1:0014
#007961:000024
#007921:00000014
#007961:000000000000000000000024
#0109b1:00130000
#010971:0023
#010920:0013
#010960:00000023
#013920:0013
#013960:00000023
#0139b1:00000013
#014971:23
#015971:0013000000000000
#0159b1:00230000
#015920:0013000000000000
#015960:00230000
#0169a0:14
#016960:00240000
#016920:0000001400000000
#016960:0000000000240000
#0169a0:00000014
#016960:0000000000000054
#0179a0:24
#017920:0014002400000000
#017960:00540000
#0219b0:0013000000000000
#021970:0000002300000000
#0239b0:00130000
#023970:0023
#029920:0013000000000000
#029960:0000002300000000
#0359b0:13
#035970:0023000000000000
#035921:0013000000000000
#035961:00230000
#0359b0:00130000
#035970:0000002300000000
#035921:0000001300000000
#035961:0023
#0399a1:000000000000000000000000000000000000000000000000000000000000000000000000000000000000000000000000000000000000000000000000000000000000000000000000000000000000000000000000000000000000000000000000000000000000000000000000000000000000000000000000000000000000000000000000000000000000000000000000000000000000000000000000000000000000000000000000000000000000000000000000000000000000000000000000000000000000000000000000000000000000000000000000000000000000000000000000000000000000000000000000000000000000000000000000000000000000000000000000000000000000000000000000000000000000000000000000000000000000000000000000000000000000000000000000000000000000000000000000000000000000000000000000000000000000000000000000000000000000000000000000000000000000000000000000000000000000000000000000000000000000000000000000000000000000000000000000000000000000000000000000000000000000000000000000000000000000000000000000000000000000000000000000000000000000000000000000000000000000000000000000001400000000000000000000000000000000000000000000000000000000000000000000000000000000000000000000000000000000000000000000000000000000000000000000000000000000000000000000000000000000000000000000000000000000000000000000000000000000000000000000000000000000000000000000000000000000000000000000000000000000000000000000000000000000000000000000000000000000000000000000000000000000000000000000000000000000000000000000000000000000000000000000000000000000000000000000000000000000000000000000000000000000000000000000000000000000000000000000000000000000000000000000000000000000000000000000000000000000000000000000000000000000000000000000000000000000000000000000000000000000000000000000000000000000000000000000000000000000000000000000000000000000000000000000000000000000000000000000000000000000000000000000000000000000000000000000000000000000000000000000000000000000000000000000000000000000000000000000000000000000000000000000000000000000000000000000000000000000000000000000000000000000000000000000000000000000000000000000000000000000000000000000000000000000000000000000000000000000000000000000000000000000000000000000000000000000000000000000000000000000000000000000000000000000000000000000000000000000000000000000000000000000000000000000000000000000000000000000000000000000000000000000000000000000000000000000000000000000000000000000000000000000000000000000000000000000000000000000000000000000000000000000000000000000000000000000000000000000000000000000000000000000000000000000000000000000000000000000000000000000000000000000000000000000000000000000000000000000000000000000000000000000000000000000000000000000000000000000000000000000000000000000000000000000000000000000000000000000000000000000000000000000000000000000000000000000000000000000000000000000000000000000000000000000000000000000000000000000000000000000000000000000000000000000000000000000000000000000000000000000000000000000000000000000000000000000000000000000000000000000000000000000000000000000000000000000000000000000000000000000000000000000000000000000000000000000000000000000000000000000000000000000000000000000000000000000000000000000000000000000000000000000000000000000000000000000000000000000000000000000000000000000000000000000000000000000000000000000000000000000000000000000000000000000000000000000000000000000000000000000000000000000000000000000000000000000000000000000000000000000000000000000000000000000000000000000000000000000000000000000000000000000000000000000000000000000000000000000000000000000000000000000000000000000000000000000000000000000000000000000000000000000000000000000000000000000000000240000000000000000000000000000000000000000000000000000000000000000000000000000000000000000000000000000000000000000000000000000000000000000000000000000000000000000000000000000000000000000000000000000000000000000000000000000000000000000000000000000000000000000000000000000000000000000000000000000000000000000000000000000
#039961:000000000000000000000000000000000000000000000000000000000000000000000000000000000000000000000000000000000000000000000000000000000000000000000000000000000000000000000000000000000000000000000000000000000000000000000000000000000000000000000000000000000000000000000000000000000000000000000000000000000000000000000000000000000000000000000000000000000000000000000000000000000000000000000000000000000000000000000000000000000000000000000000000000000000000000000000000000000000000000000000000000000000000000000000000000000000000000000000000000000000000000000000000000000000000000000000000000000000000000000000000000000000000000000000000000000000000000000000000000000000000000000000000000000000000000000000000000000000000000000000000000000000000000000000000000000000000000000000000000000000000000000000000000000000000000000000000000000000000000000000000000000000000000000000000000000000000000000000000000000000000000000000000000000000000000000000000000000000000000000000000000000000000000000000000000000000000000000000000000000000000000000000000000000000000000000000000000000000000000000000000000000000000000000000000000000000000000000000000000000000000000000000000000000000000000000000000000000000000000000000000000000000000000000000000000000000000000000000000000000000000000000000000000000000000000000000000000000000000000000000000000000000000000000000000000000000000000000000000000000000000000000000000000000000000000000000000000000000000000000000000000000000000000000000000000000000000000000000000000000000000000000000000000000000000000000000000000000000000000000000000000000000000000000000000000000000000000000000000000000000000000000000000000000000000000000000000000000000000000000000000000000000000000000000000000000000000000000000000000000000000000000000000000000000000000000000000000000000000000000000000000000000000000000000000000000000000000000000000000000000000000000000000000000000000000000000000000000000000000000000000000000000000000000000000000000000000000000000000000000000000000000000000000000000000000000000000000000000000000000000000000000000000000000000000000000000000000000000000000000000000000000000000000000000000000000000000000000000000000000000000000000000000000000000000000000000000000000000000000000000000000000000000000000054000000000000000000000000000000000000000000000000000000000000000000000000000000000000000000000000000000000000000000000000000000000000000000000000000000000000000000000000000000000000000000000000000000000000000000000000000000000000000000000000000000000000000000000000000000000000000000000000000000000000000000000000000000000000000000000000000000000000000000000000000000000000000000000000000000000000000000000000000000000000000000000000000000000000000000000000000000000000000000000000000000000000000000000000000000000000000000000000000000000000000000000000000000000000000000000000000000000000000000000000000000000000000000000000000000000000000000000000000000000000000000000000000000000000000000000000000000000000000000000000000000000000000000000000000000000000000000000000000000000000000000000000000000000000000000000000000000000000000000000000000000000000000000000000000000000000000000000000000000000000000000000000000000000000000000000000000000000000000000000000000000000000000000000000000000000000000000000000000000000000000000000000000000000000000000000000000000000000000000000000000000000000000000000000000000000000000000000000000000000000000000000000000000000000000000000000000000000000000000000000000000000000000000000000000000000000000000000000000000000000000000000000000000000000000000000000000000000000000000000000000000000000000000000000000000000000000000000000000000000000000000000000000000000000000000000000000000000000000000000000000000000000000000000000000000000000000000000000000000000000000000000000000000000000000000000000000000000000000000000000000000000000000000000000000000000000
#040921:000000000000000000000000000000000000000000000000000000000000000000000000000000000000000000000000000000000000000000000000000000000000000000000000000000000000000000000000000000000000000000000000000000000000000000000000000000000000000000000000000000000000000000000000000000000000000000000000000000000000000000000000000000000000000000000000000000000000000000000000000000000000000000000000000000000000000000000000000000000000000000000000000000000000000000000000000000000000000000000000000000000000000000000000000000000000000000000000000000000000000000000000000000000000000000000000000000000000000000000000000000000000000000000000000000000000000000000000000000000000000000000000000000000000000000000000000000000000000000000000000000000000000000000000000000000000000000000000000000000000000000000000000000000000000000000000000000000000000000000000000000000000000000000000000000000000000000000000000000000000000000000000000000000000000000000000000000000000000000000000000000000000000000000000000000000000000000000000000000000000000000000000000000000000000000000000000000000000000000000000000000000000000000000000000000000000000000000000000000000000000000000000000000000000000000000000000000000000000000000000000000000000000000000000000000000000000000000000000000000000000000000000000000000000000000000000000000000000000000000000000000000000000000000000000000000000000000000000000000000000000000000000000000000000000000000000000000000000000000000000000000000000000000000000000000000000000000000000000000000000000000000000000000000000000000000000000000000000000000000000000000000000000000000000000000000000000000000000000000000000000000000000000000000000000000000000000000000000000000000000000000000000000000000000000000000000000000000000000000000000000000000000000000000000000000000000000000000000000000000000000000000000000000000000000000000000000000000000000000000000000000000000000000000000000000000000000000000000000000000000001400000000000000000000000000000000000000000000000000000000000000000000000000000000000000000000000000000000000000000000000000000000000000000000000000000000000000000000000000000000000000000000000000000000000000000000000000000000000000000000000000000000000000000000000000000000000000000000000000000000000000000000000000000000000000000000000000000000000000000000000000000000000000000000000000000000000000000000000000000000000000000000000000000000000000000000000000000000000000000000000000000000000000000000000000000000000000000000000000000000000000000000000000000000000000000000000000000000000000000000000000000000000000000000000000000000000000000000000000000000000000000000000000000000000000000000000000000000000000000000000000000000000000000000000000000000000000000000000000000000000000000000000000000000000000000000000000000000000000000000000000000000000000000000000000000000000000000000000000000000000000000000000000000000000000000000000000000000000000000000000000000000000000000000000000000000000000000000000000000000000000000000000000000000000000000000000000000000000000000000000000000000000000000000000000000000000000000000000000000000000000000000000000000000000000000000000000000000000000000000000000000000000000000000000000000000000000000000000000000000000000000000000000000000000000000000000000000000000000000000000000000000000000000000000000000000000000000000000000000000000000000000000000000000000000000000000000000000000000000000000000000000000000000000000000000000000000000000000000000000000000000000000000000000000000000000000000000000000000000000000000000000000000000000000000000000000000000000000000000000000000000000000000000000000000000000000000000000000000000000000000000000000000000000000000000000000000000000000000000000000000000000000000000000000000000000000000000000000000000000000000000000000000000000000000000000000000000000000000000000000000000000000000000000000000000000000000000000000000000000
#040961:000000000000000000000000000000000000000000000000000000000000000000000000000000000000000000000000000000000000000000000000000000000000000000000000000000000000000000000000000000000000000000000000000000000000000000000000000000000000000000000000000000000000000000000000000000000000000000000000000000000000000000000000000000000000000000000000000000000000000000000000000000000000000000000000000000000000000000000000000000000000000000000000000000000000000000000000000000000000000000000000000000000000000000000000000000000000000000000000000000000000000000000000000000000000000000000000000000000000000000000000000000000000000000000000000000000000000000000000000000000000000000000000000000000000000000000000000000000000000000000000000000000000000000000000000000000000000000000000000000000000000000000000000000000000000000000000000000000000000000000000000000000000000000000000000000000000000000000000000000000000000000000000000000000000000000000000000000000000000000000000000000000000000000000000000000000000000000000000000000000000000000000000000000000000000000000000000000000000000000000000000000000000000000000000000000000000000000000000000000000000000000000000000000000000000000000000000000000000000000000000000000000000000000000000000000000000000000000000000000000000000000000000000000000000000000000000000000000000000000000000000000000000000000000000000000000000000000000000000000000000000000000000000000000000000000000000000000000000000000000000000000000000000000000000000000000000000000000000000000000000000000000000000000000000000000000000000000000000000000000000000000000000000000000000000000000000000000000000000000000000000000000000000000000000000000000000000000000000000000000000000000000000000000000000000000000000000000000000000000000000000000000000000000000000000000000000000000000000000000000000000000000000000000000000000000000000000000000000000000000000000000000000000000000000000000000000000000000000000000000000000000000000000000000000000000000000000000000000000000000000000000000000000000000000000000000000000000000000000000000000000000000000000000000000000000000000000000000000000000000000000000000000000000000000000000000000000000000000000000000000000000000000000000000000000000000000000000000000000000000000000000000000000000000000000000000000000000000000000000000000000000000000000000000000000000000000000000000000000000000000000000000000000000000000000000000000000000000000000000000000000000000000000000000000000000000000000000000000000000000000000000000000000000000000000000000000000000000000000000000000000000000000000000000000000000000000000000000000000000000000000000000000000000000000000000000000000000000000000000000000000000000000000000000000000000000000000000000000000000000000000000000000000000000000000000000000000000000000000000000000000000000000000000000000000000000000000000000000000000000000000000000000000000000000000000000000000000000000000000000000000000000000000000000000000000000000000000000000000000000000000000000000000000000000000000000000000000000000000000000000000000000000000000000000000000000000000000000000000000000000000000000000000000000000000000000000000000000000000000000000000000000000000000000000000000000000000000000000000000000000000000000000000000000054000000000000000000000000000000000000000000000000000000000000000000000000000000000000000000000000000000000000000000000000000000000000000000000000000000000000000000000000000000000000000000000000000000000000000000000000000000000000000000000000000000000000000000000000000000000000000000000000000000000000000000000000000000000000000000000000000000000000000000000000000000000000000000000000000000000000000000000000000000000000000000000000000000000000000000000000000000000000000000000000000000000000000000000000000000000000000000000000000000000000000000000000000000000000000000000000000000000000000000000000000000000000000000000000000000000000
#041921:00000000000000000000000000000000000000000000000000000000000000000000000000000000000000000000000000000000000000000000000000000000000000000000000000000000000000000000000000000000000000000000000000000000000000000000002400000000000000000000000000000000000000000000000000000000000000000000000000000000000000000000000000000000000000000000000000000000000000000000000000000000000000000000000000000000000000000000000000000000000000000000000000000000000000000000000000000000000000000000000000000000000000000000000000000000000000000000000000000000000000000000000000000000000000000000000000000000000000000000000000000000000000000000000000000000000000000000000000000000000000000000000000000000000000000000000000000000000000000000000000000000000000000000000000000000000000000000000000000000000000000000000000000000000000000000000000000000000000000000000000000000000000000000000000000000000000000000000000000000000000000000000000000000000000000000000000000000000000000000000000000000000000000000000000000000000000000000000000000000000000000000000000000000000000000000000000000000000000000000000000000000000000000000000000000000000000000000000000000000000000000000000000000000000000000000000000000000000000000000000000000000000000000000000000000000000000000000000000000000000000000000000000000000
#044961:0013000000000000
#044921:00230000
#044970:00130000
#0449b0:0000002300000000
#044961:0000001300000000
#044921:0023
#044970:0013
#0449b0:0000000000230000
#044961:0000000000130000
#044921:00000023
#0529c1:12
#052981:00220000
#052960:00120000
#052920:0022
#0529c1:0012
#052981:00000022
#0579c1:12
#057981:00220000
#057960:00120000
#057920:0022
#0579c1:0012
#057981:00000022
#062971:00000013
#0629a1:00000000000000000000000000000023
#062950:00000000000000000000000000000013
#063920:0023000000000000
#0639b1:0013000000000000
#063981:00000000002300000000000000000000
#063930:00000000001300000000000000000000
#063960:0023
#063920:000000000000000000000014
#0649a0:00240000
#0689a0:000000000000000000000000000000000000000000000000000000000000000000000000000000000000000000000000000000000000000000000000000000000000000000000000000000000000000000000000000000000000000000000000000000000000000000000000000000000000000000000000000000000000000000000000000000000000000000000000000000000000000000000000000000000000000000000000000000000000000000000000000000000000000000000000000000000000000000000000000000000000000000000000000000000000000000000000000000000000000000000000000000000000000000000000000000000000000000000000000000000000000000000000000000000000000000000000000000000000000000000000000000000000000000000000000000000000000000000000000000000000000000000000000000000000000000000000000000000000000000000000000000000000000000000000000000000000000000000000000000000000000000000000000000000000000000000000000000000000000000000000000000000000000000000000000000000000000000000000000000000000000000000000000000000000000000000000000000000000000000000000000000000000000000000000000000000000000000000000000000000000000000000000000000000000000000000000000000000000000000000000000000000000000000000000000000000000000000000000000000000000000000000000000000000000000000000000000000000000000000000000000000000000000000000000000000000000000000000000000000000000000000000000000000000000000000000000000000000000000000000000000000000000000000000000000000000000000000000000000000000000000000000000000000000000000000000000000000000000000000000000000000000000000000000000000000000000000000000000000000000000000000000000000000000000000000000000000000000000000000000000000000000000000000000000000000000000000000000000000000000000000000000000000000000000000000000000000000000000000000000000000000000000000000000000000000000000000000000000000000000000000000000000000000000000000000000000000000000000000000000000000000000000000000000000000000000000000000000000000000000000000000000000000000000000000000000000000000000000000000000000000000000000000000000000000000000000000000000000000000000000000000000000000000000000000000000000000000000000000000000000000000000000000000000000000000000000000000000000000000000000000000000000000000000000000000000000000000000000000000000000000000000000000000000000000000000000000000000000000000000000000000000000000000000000000000000000000000000000000000000000000000000000000000000000000000000000000000000000000000000000000000000000000000000000000000000000000000000000000000000000000000000000000000000000000000000000000000000000000000000000000000000000000000000000000000000000000000000000000000000000000000000000000000000000000000000000000000000000000000000000000000000000000000000000000000000000000000000000000000000000000000000000000000000000000000000000000000000000000000000000000000000000000000000000000000000000000000000000000000000000000000000000000000000000000000000000000000000000000000000000000000000000000000000000000000000000000000000000000000000000001400000000000000000000000000000000000000000000000000000000000000000000000000000000000000000000000000000000000000000000000000000000000000000000000000000000000000000000000000000000000000000000000000000000000000000000000000000000000000000000000000000000000000000000000000000000000000000000000000000000000000000000000000000000000000000000000000000000000000000000000000000000000000000000000000000000000000000000000000000000000000000000000000000000000000000000000000000000000000000000000000000000000000000000000000000000000000000000000000000000000000000000000000000000000000000000000000000000000000000000000000000000000000000000000000000000000000000000000000000000000000000000000000000000000000000000000000000000000000000000000000000000000000000000000000000000000000000000000000000000000000000000000000000000000000000000000000000000000000000000000000000000000000000000000000000000000000000000000000000000000000000000000000000000000000000000000000000000000000000000
#068960:000000000000000000000024
#069920:001400000000000000000000000000000000000000000000000000000000000000000000000000000000000000000000000000000000000000000000000000000000000000000000000000000000000000000000000000000000000000000000000000000000000000000000000000000000000000000000000000000000000000000000000000000000000000000000000000000000000000000000000000000000000000000000000000000000000000000000000000000000000000000000000000000000000000000000000000000000000000000000000000000000000000000000000000000000000000000000000000000000000000000000000000000000000000000000000000000000000000000000000000000000000000000000000000000000000000000000000000000000000000000000000000000000000000000000000000000000000000000000000000000000000000000000000000000000000000000000000000000000000000000000000000000000000000000000000000000000000000000000000000000000000000000000000000000000000000000000000000000000000000000000000000000000000000000000000000000000000000000000000000000000000000000000000000000000000000000000000000000000000000000000000000000000000000000000000000000000000000000000000000000000000000000000000000000000000000000000000000000000000000000000000000000000000000000000000000000000000000000000000000000000000000000000000000000000000000000000000000000000000000000000000000000000000000000000000000000000000000000000000000000000000000000000000000000000000000000000000000000000000000000000000000000000000000000000000000000000000000000000000000000000000000000000000000000000000000000000000000000000000000000000000000000000000000000000000000000000000000000000000000000000000000000000000000000000000000000000000000000000000000000000000000000000000000000000000000000000000000000000000000000000000000000000000000000000000000000000000000000000000000000000000000000000000000000000000000000000000000000000000000000000000000000000000000000000000000000000000000000000000000000000000000000000000000000000000000000000000000000000000000000000000000000000000000000000000000000000000000000000000000000000000000000000000000000000000000000000000000000000000000000000000000000000000000000000000000000000000000000000000000000000000000000000000000000000000000000000000000000000000000000000000000000000000000000000000000000000000000000000000000000000000000000000000000000000000000000000000000000000000000000000000000000000000000000000000000000000000000000000000000000000000000000000000000000000000000000000000000000000000000000000000000000000000000000000000000000000000000000000000000000000000000000000000000000000000000000000000000000000000000000000000000000000000000000000000000000000000000000000000000000000000000000000000000000000000000000000000000000000000000000000000000000000000000000000000000000000000000000000000000000000000000000000000000000000000000000000000000000000000000000000000000000000000000000000000000000000000000000000000000000000000000000000000000000000000000000000000000000000000000000000000000000000000000000000000000000000000000000000000000000000000000000000000000000000000000000000000000000000000000000000000000000000000000000000000000000000000000000000000000000000000000000000000000000000000000000000000000000000000000000000000000000000000000000000000000000000000000000000000000000000000000000000000000000000000000000000000000000000000000000000000000000000000000000000000000000000000000000000000000000000000000000000000000000000000000000000000000000000000000000000000000000000000000000000000000000000000000000000000000000000000000000000000000000000000000000000000000000000000000000000000000000000000000000000000000000000000000000000000000000000000000000000000000000000000000000000000000000000000000000000000000000000000000000000000000000000000000000000000000000000000000000000000000000000000000000000000000000000000000000000000000000000000000000000000000000000000000000000000000000000000000000000000000000000000000000000000000000000000000000000000000000000000000000000000000000000
#069960:002400000000
#070960:0014000000000000
#070920:0000000000240000000000000000000000000000000000000000000000000000
#071960:0014000000000000
#0719a0:0000000000240000000000000000000000000000000000000000000000000000
#075930:00000012
#075940:0000000000000052
#076950:52
#076960:0052000000000000
#076970:00220000
#0769b0:0012
#0769a0:0000000000520000
#076990:00000052
#076980:0000000000000052
#077970:22
#082930:00000012
#083930:000000000000000000000000000000000000000000000000000000000000000000000000000000000000000000000000000000000000000000000000000000000000000000000000000000000000000000000000000000000000000000000000000000000000000000000000000000000000000000000000000000000000000000000000000000000000000000000000000000000000000000000000000000000000000000000000000000000000000000000000000000000000000000000000000000000000000000000000000000000000000000000000000000000000000000000000000000000000000000000000000000000000000000000000000000000000000000000000000000000000000000000000000000000000000000000000000000000000000000000000000000000000000000000000000000000000000000000000000000000000000000000000000000000000000000000000000000000000000000000000000000000000000000000000000000000000000000000000000000000000000000000000000000000000000000000000000000000000000000000000000000000000000000000000000000000000000000000000000000000000000000000000000000000000000000000000000000000000000000005252220000000000000000000000000000000000000000000000000000000000000000000000000000000000000000000000000000000000000000000000000000000000000000000000000000000000000000000000000000000000000000000000000000000000000000000000000000000000000000000000000000000000000000000000000000000000000000000000000000000000000000000000000000000000000000000000000000000000000000000000000000000000000000000000000000000000000000000000000000000000000000000000000000000000000000000000000000000000000000000000000000000000000000000000000000000000000000000000000000000000000000000000000000000000000000000000000000000000000000000000000000000000000000000000000000000000000000000000000000000000000000000000000000000000000000000000000000000000000000000000000000000000000000000000000000000000000000000000000000000000000000000000000000000000000000000000000000000000000000000000000000000000000000000000000000000000000000000000000000000000000000000000000000000000000000000000000000000000000000000000000000000000000000000000000000000000000000000000000000000000000000000000000000000000000000000000000000000000000000000000000000000000000000000000000000000000000000000000000000000000000000000000000000000000000000000000000000000000000000000000000000000000000000000000000000000000000000000000000000000000000000000000000000000000000000000000000000000000000000000000000000000000000000000000000000000000000000000000000000000000000000000000000000000000000000000000000000000000000000000000000000000000000000000000000000000000000000000000000000000000000000000000000000000000000000000000000000000000000000000000000000000000000000000000000000000000000000000000000000000000000000000000000000000000000000000000000000000000000000000000000000000000000000000000000000000000000000000000000000000000000000000000000000000000000000000000000000000000000000000000000000000000000000000000000000000000000000000000000000000000000000000000000000000000000000000000000000000000000000000000000000000000000000000000000000000000000000000000000000000000000000000000000000000000000000000000000000000000000000000000000000000000000000000000000000000000000000000000000000000000000000000000000000000000000000000000000000000000000000000000000000000000000000000000000000000000000000000000000000000000000000000000000000000000000000000000000000000000000000000000000000000000000000000000000000000000000000000000000000000000000000000000000000000000000000000000000000000000000000000000000000000000000000000000000000000000000000000000000000000000000000000000000000000000000000000000000000000000000000000000000000000000000000000000000000000000000000000000000000000000000000000000000000000000000000000000000000000000000000000000000000000000000000000000000000000000000000000000000000000000000000000000000000000000000000000000000000000000000000000000000000000000000000000000000000000000000000000000000000000000000000000000000000000000000000000000000000000000000000000000
#0829b1:00000012
#0839b1:000000000000000000000000000000000000000000000000000000000000000000000000000000000000000000000000000000000000000000000000000000000000000000000000000000000000000000000000000000000000000000000000000000000000000000000000000000000000000000000000000000000000000000000000000000000000000000000000000000000000000000000000000000000000000000000000000000000000000000000000000000000000000000000000000000000000000000000000000000000000000000000000000000000000000000000000000000000000000000000000000000000000000000000000000000000000000000000000000000000000000000000000000000000000000000000000000000000000000000000000000000000000000000000000000000000000000000000000000000000000000000000000000000000000000000000000000000000000000000000000000000000000000000000000000000000000000000000000000000000000000000000000000000000000000000000000000000000000000000000000000000000000000000000000000000000000000000000000000000000000000000000000000000000000000000000000000000000000000000005252220000000000000000000000000000000000000000000000000000000000000000000000000000000000000000000000000000000000000000000000000000000000000000000000000000000000000000000000000000000000000000000000000000000000000000000000000000000000000000000000000000000000000000000000000000000000000000000000000000000000000000000000000000000000000000000000000000000000000000000000000000000000000000000000000000000000000000000000000000000000000000000000000000000000000000000000000000000000000000000000000000000000000000000000000000000000000000000000000000000000000000000000000000000000000000000000000000000000000000000000000000000000000000000000000000000000000000000000000000000000000000000000000000000000000000000000000000000000000000000000000000000000000000000000000000000000000000000000000000000000000000000000000000000000000000000000000000000000000000000000000000000000000000000000000000000000000000000000000000000000000000000000000000000000000000000000000000000000000000000000000000000000000000000000000000000000000000000000000000000000000000000000000000000000000000000000000000000000000000000000000000000000000000000000000000000000000000000000000000000000000000000000000000000000000000000000000000000000000000000000000000000000000000000000000000000000000000000000000000000000000000000000000000000000000000000000000000000000000000000000000000000000000000000000000000000000000000000000000000000000000000000000000000000000000000000000000000000000000000000000000000000000000000000000000000000000000000000000000000000000000000000000000000000000000000000000000000000000000000000000000000000000000000000000000000000000000000000000000000000000000000000000000000000000000000000000000000000000000000000000000000000000000000000000000000000000000000000000000000000000000000000000000000000000000000000000000000000000000000000000000000000000000000000000000000000000000000000000000000000000000000000000000000000000000000000000000000000000000000000000000000000000000000000000000000000000000000000000000000000000000000000000000000000000000000000000000000000000000000000000000000000000000000000000000000000000000000000000000000000000000000000000000000000000000000000000000000000000000000000000000000000000000000000000000000000000000000000000000000000000000000000000000000000000000000000000000000000000000000000000000000000000000000000000000000000000000000000000000000000000000000000000000000000000000000000000000000000000000000000000000000000000000000000000000000000000000000000000000000000000000000000000000000000000000000000000000000000000000000000000000000000000000000000000000000000000000000000000000000000000000000000000000000000000000000000000000000000000000000000000000000000000000000000000000000000000000000000000000000000000000000000000000000000000000000000000000000000000000000000000000000000000000000000000000000000000000000000000000000000000000000000000000000000000000000000000000000000000000000000000
#084981:12
#084991:0052000000000000
#0849a1:00220000
#084961:00000012
#084951:0000000000000052
#085941:22
#0989c1:12
#098981:00220000
#098960:00120000
#098920:0022
#0989c1:0012
#098981:00000022
#1039c1:12
#103981:00220000
#103960:00120000
#103920:0022
#1039c1:0012
#103981:00000022
#110921:00000014
#111951:24
#1119a0:14
#111970:00240000
#111921:00140000
#111951:0024
#114961:00000014
#115931:24
#115970:14
#1159a0:00240000
#115951:00140000
#115921:0024
#118961:0014
#1189a1:00000024
#123921:0012000000000000
#123931:00520000
#123941:0000000000000000000000520000000000000000000000000000000000000000
#123951:0000000000000000000000000052000000000000000000000000000000000000
#123961:0000000000000000000000000000002200000000000000000000000000000000
#124921:0000000000000000000000120000000000000000000000000000000000000000
#124931:0000000000000000000000000000000000520000000000000000000000000000
#124941:00000052
#125951:0052000000000000000000000000000000000000000000000000000000000000
#125961:0000005200000000
#125971:00000052
#126941:0000000000000000000000520000000000000000000000000000000000000000
#127971:0000000000000052000000000000000000000000000000000000000000000000
#127931:000000000000000000000000000000000000000000000000000000000000000000000000000000000000000000000000000000000000000000000000000000000000000000000000000000000000000000000000000000000000000000000000000000000000000000000000000000000000000000000000000000000000000000000000000000000000000000000000000000000000000000000000000000000000000000000000000000000000000000000000000000000000000000000000000000000000000000000000000000000000000000000000000000000000000000000000000000000000000000000000000000000000000000000000000000000000000000000000000000000000000000000000000000000000000000000000000000000000000000000000000000000000000000000000000000000000000000000000000000000000000000000000000000000000000000000000000000000000000000000000000000000000000000000000000000000000000000000000000000000000000000000000000000000000000000000000000000000000000000000000000000000000000000000000000000000000000000000000000000000000000000000000000000000000000000000000000000000000000000000000000000000000000000000000000000000000000000000000000000000000000000000000000000000000000000000000000000000000000000000000000000000000000000000000000000000000000000000000000000000000000000000000000000000000000000000000000000000000000000000000000000000000000000000000000000000000000000000000000000000000000000000000000000000000000000000000000000000000000052525252000052522200000000000000000000000000000000000000000000000000000000000000000000000000000000000000000000000000000000000000000000000000000000000000000000000000000000000000000000000000000000000000000000000000000000000000000000000000000000000000000000000000000000000000000000000000000000000000000000000000000000000000000000000000000000000000000000000000000000000000000000000000000000000000000000000000000000000000000000000000000000000000000000000000000000000000000000000000000000000000000000000000000000000000000000000000000000000000000000000000000000000000000000000000000000000000000000000000000000000000000000000000000000000000000000000000000000000000000000000000000000000000000000000000000000000000000000000000000000000000000000000000000000000000000000000000000000000000000000000000000000000000000000000000000000000000000000000000000000000000000000000000000000000000000000000000000000000000000000000000000000000000000000000000000000000000000000000000000000000000000000000000000000000000000000000000000000000000000000000000000000000000000000000000000000000000000000000000000000000000000000000000000000000000000000000000000000000000000000000000000000000000000000000000000000000000000000000000000000000000000000000000000000000000000000000000000000000000000000000000000000000000000000000000000000000000000000000000000000000000000000000000000000000000000000000000000000000000000000000000000000000000000000000000000000000000000000000000000000000000000000000000000000000000000000000000000000000000000000000000000000000000000000000000000000000000000000000000000000000000000000000000000000000000000000000000000000000000000000000000000000000000000000000000000000000000000000000000000000000000000000000000000000000000000000000000000000000000000000000000000000000000000000000000000000000000000000000000000000000000000000000000000000000000000000000000000000000000000000000000000000000000000000000000000000000000000000000000000000000000000000000000000000000000000000000000000000000000000000000000000000000000000000000000000000000000000000000000000000000000000000000000000000000000000000000000000000000000000000000000000000000000000000000000000000000000000000000000000000000000000000000000000000000000000000000000000000000000000000000000000000000000000000000000000000000000000000000000000000000000000000000000000000000000000000000000000000000000000000000000000000000000000000000000000000000000000000000000000000000000000000000000000000000000000000000000000000000000000000000000000000000000000000000000000000000000000000000000000000000000
#1279b0:0000000000000000000000120000000000000000000000000000000000000000
#1329d0:0021
#127932:0000000000000000000000120000000000000000000000000000000000000000
#132922:0021
