This file was generated by Ched 2.7.0.0.
#TITLE ""
#ARTIST ""
#DESIGNER ""
#DIFFICULTY 0
#PLAYLEVEL
#SONGID ""
#WAVE ""
#WAVEOFFSET 0
#JACKET ""
#REQUEST "ticks_per_beat 480"
#00002: 4
#BPM01: 192
#00008: 01
#TIL00: ""
#VOLUME: ""
#HISPEED 00
#MEASUREHS 00
#01115:0013
#01118:00000013
#01119:13
#01110:41
#01215:13000013
#01218:0013
#01315:00000013
#01318:13
#0141b:13
#01412:0013
#01418:00000013
#0151b:0013
#01515:00000013
#01512:13
#0161b:13000013
#01615:00131300
#01618:0000001300000000
#02115:0013
#02118:00130013
#02218:0000000000000013
#02218:0000000000000013
#02215:00000013
#02215:00000013
#0221b:00130000
#0361a:00140000
#03614:0000000000000014
#03618:00000014
#03612:0014
#03610:41
#04115:00000013
#04118:0023
#04218:00130013
#0421b:13
#04215:0000000023000013
#04212:23
#08014:14
#08018:14
#0581b:23000013
#05815:00130000
#05812:13
#05818:0023
#05718:00000013
#05715:0023
#04315:0000000000000013
#04318:13
#04418:13
#0441b:0000001300000000
#04015:0000001400000000
#06615:00000013
#06618:0000000000000013
#0661a:0013
#06613:0013
#06612:23
#0661b:23
#02812:13000013
#0281b:13
#02815:00130000
#02818:0013
#0301b:00000013
#03012:00130013
#02918:0013
#02915:00000013
#0201b:13
#02018:00130000
#02015:0013
#02012:13000013
#07215:00000013
#07218:0013
#07212:00130000
#0711b:1313
#07118:00000013
#07112:13
#01712:13000013
#01718:00131300
#01715:0000001300000000
#01912:00130000
#0191f:11
#01915:00000013
#01918:0013
#0191b:23
#02412:13
#02415:00130000
#02418:0013
#0241b:13000013
#0231b:00130000
#02318:00000013
#02315:0013
#02312:23
#02618:0013000000000000
#02612:13130000
#02515:0013
#02518:00000013
#02715:0013
#02718:00000013
#02712:00130000
#0271b:23
#0311b:13
#03112:13
#0331a:13
#03313:13
#03215:00130000
#03218:00130000
#03514:14
#03512:0014
#03518:24
#0351f:21
#03915:0000001400000000
#03912:0000000000000014
#04518:0000000000000013
#04515:13
#04615:13
#04612:0000001300000000
#04812:1323
#0481b:2313
#04815:00130000
#04818:00000013
#06816:14
#06812:0024
#06814:00000024
#07015:0013
#07018:00000013
#0701a:24
#07719:00130000
#07712:2313
#0771b:13
#07714:00000013
#07717:0023
#07618:0013
#07615:00000013
#07612:24
#0781b:13
#07812:0013
#07816:23
#07817:0023
#07814:00230000
#07819:00000023
#0791b:13
#07912:23
#05212:00140000
#05218:0014
#0521a:000000000000000034143400
#03718:14
#0371a:0014
#05617:0000001400000000
#05517:0000001400000000
#0551a:0000000000000014
#05510:41
#05314:14
#05312:0014
#05118:14
#0511a:0014
#05114:24
#05918:00000013
#05915:0000130000000013
#05912:13
#06018:00000013
#06012:00000013000000000000000000001300
#06315:00000013
#06318:0000130000000013
#0631b:13
#0641b:00000013000000000000000000000000
#06410:41
#06518:13
#06515:13
#05015:0013
#05018:00130013
#05012:23
#0501b:23
#01815:0000000000000013
#01815:0000000000000013
#01818:00000013
#01818:00000013
#0181b:23
#01812:23
#0471b:0013
#04715:00130000
#04718:23000013
#04712:0023
#04710:41
#06212:23000013
#06218:00130000
#0621b:13
#06215:0023
#06115:00000013
#06118:0023
#07416:14
#0741a:0024
#07418:00000024
#06712:24
#0671a:0024
#0731a:24
#07312:0024
#07310:41
#03814:00240000
#03818:0024
#03812:00000024
#05418:00240000
#05414:0024
#0541a:00000024
#04912:23
#0491b:23
#06916:24
#06918:00240000
#0691a:0024
#06914:00000024
#07516:24
#07514:00240000
#07512:0024
#07518:00000024
#08812:52
#0881c:52
#03418:53
#03415:53
#08054:64
#08058:54
#04458:53000013
#0445b:0000006300000000
#04055:0000006400000000
#04052:00000014
#0715b:1363
#07158:00000023
#07152:13
#06752:14
#0675a:0064
#02052:00000053
#0225b:00630000
#02158:00000053
#0245b:00000063
#02352:13
#02652:00530000
#0275b:13
#03052:00530000
#02852:00000053
#02955:00000063
#0315b:63
#03152:53
#0335a:63
#03353:53
#03255:00630000
#03258:00530000
#03554:64
#03552:0024
#03955:0000006400000000
#03952:0000000000000054
#04358:53
#0435b:0013
#04655:63000013
#04652:0000005300000000
#04555:63
#04552:0013
#04955:0013
#04958:0013
#04952:53
#0495b:63
#06856:54
#0735a:14
#07352:0054
#0795b:63
#05258:1454
#0525a:00000024
#03758:54
#0375a:0024
#05657:0000005400000000
#0565a:00000014
#05557:0000005400000000
#0555a:0000000000000064
#05354:64
#05352:0024
#05158:54
#0515a:0024
#05955:0000230000000063
#05952:53
#06052:00000023000000000000000000005300
#06358:0000230000000053
#0635b:63
#0645b:00000023000000000000000000000000
#06558:53
#06555:63
#0195b:13
#01358:53
#03852:00000054
#03858:14
#03654:14
#0545a:00000064
#05454:14
#06652:13
#0665b:13
#0705a:64
#07456:64
#07652:54
#0033a0:13
#004380:33
#0053a0:23
#005331:13
#006351:33
#007331:23
#007390:13
#0083b0:33
#009390:23
#009341:13
#010321:33
#011341:23
#013381:13
#0133b1:0023
#020321:00000013
#021351:23
#021381:00000013
#0223b1:0033330000000000
#022381:0023
#0243b1:00000013
#025381:00230000
#026321:00130000
#026351:00000023
#028321:00000013
#029351:00230000
#029351:00000013
#030321:0033330000000000
#030351:0023
#0313b1:13
#032381:00330000
#0333a1:33
#034381:23
#031320:13
#032350:00330000
#033330:33
#034350:23
#035340:14
#035320:0054
#036340:24
#037380:14
#0373a0:0054
#038380:24
#038320:00000014
#039350:0000343400000000
#039320:0000000000003434
#040350:0000343400000000
#040320:00000024
#043380:13
#0433b0:0023
#044380:13000023
#0443b0:0000333300000000
#045350:13
#045320:0000003323000000
#046350:13000023
#046320:0000333300000000
#049320:13
#049350:0000003323000000
#0493b1:13
#049381:0000003323000000
#051381:14
#0513a1:0054
#052381:24
#052381:0014
#0523a1:000000000000000034543400
#053381:24
#053340:14
#053320:0054
#054340:24
#0543a0:00000014
#055370:0000343400000000
#0553a0:0000000000003434
#056370:0000343400000000
#0563a0:00000024
#059320:1323
#059350:00530000
#059350:0000000000000013
#060320:00000053000000000000000000000000
#060350:0023
#060320:0000000000000013
#061350:00230000
#0633b0:1323
#063380:00530000
#063380:0000000000000013
#0643b0:00000053000000000000000000000000
#064380:0033
#065380:33
#0663b0:23
#064351:0013
#065351:33
#066321:23
#0673a1:0014
#067361:0000000000000034
#068361:34
#0683a1:00240000
#0703a1:14
#070381:00240000
#0713b1:0013
#071381:00000053
#0723b1:23
#073321:0014
#073361:0000000000000034
#074361:34
#074321:00240000
#076321:14
#076341:00240000
#0793b1:13
#080381:54
#0883c1:22
#080340:14
#088320:22
