This file was generated by Ched 2.7.0.0.
#TITLE ""
#ARTIST ""
#DESIGNER ""
#DIFFICULTY 0
#PLAYLEVEL
#SONGID ""
#WAVE ""
#WAVEOFFSET 0
#JACKET ""
#REQUEST "ticks_per_beat 480"
#00002: 4
#BPM01: 140
#00008: 01
#TIL00: ""
#VOLUME: ""
#HISPEED 00
#MEASUREHS 00
#00114:00000014
#00118:26
#00218:14
#00318:00000014
#00414:14
#0041a:0014
#01514:1414
#0151a:00140000
#01618:1414
#01612:00140000
#01714:14140000
#01718:00001414
#01812:1414
#0181a:00140000
#01918:14140000
#01914:00001414
#02118:00140000
#02114:0014
#0211a:00000014
#02112:24
#02110:41
#02212:14
#02218:00140000
#02214:0014
#0221a:00000014
#02514:00140000
#02518:0014
#02512:00000014
#0251a:24
#0261a:14
#02614:00140000
#02618:0014
#02612:00000014
#03318:00140000
#03314:0014
#0331a:00000014
#03312:14
#03412:14
#03414:00140000
#03416:0014
#03418:00000014
#05318:00140000
#05314:0014
#0531a:00000014
#05312:26
#0531f:21
#05414:14
#05418:00140014
#05412:0014
#05410:41
#06113:00140000
#06112:1414
#06114:00000014
#06215:00140000
#06212:14
#06319:00140000
#0631a:1414
#06318:00000014
#06417:00140000
#0641a:14
#06518:00140000
#06514:0014
#0651a:00000014
#06512:14
#06612:14
#06616:00140014
#0661a:0014
#01312:1414
#01318:00140000
#01310:41
#0141a:1414
#01414:00140000
#02314:14
#02318:00000014
#02418:14
#02414:00000014
#0271a:14
#02712:00000014
#02812:14
#02818:00000014
#0351a:14
#03518:00140000
#03512:00000014
#03612:14
#03614:00140000
#04918:1414
#04914:00140014
#0501a:1414
#05012:00140014
#05118:1434343434343434
#05518:00000014
#05612:0014
#05714:00140000
#05718:1614
#05712:00000014
#05818:14
#05814:00140014
#0581a:0014
#05914:00000014
#0601a:0014
#0671a:00000014
#06814:0014
#06818:00000024
#0451f:11
#0201a:24
#00510:41
#03710:41
#02910:41
#01658:0014
#01852:0014
#0205a:0014
#06255:00240000
#06252:5414
#06154:00000024
#06153:00240000
#06152:5454
#06359:00240000
#0635a:6464
#06358:00000024
#06457:00240000
#0645a:6414
#0145a:0014
#02352:0014
#02354:64
#02458:54
#0245a:0014
#0275a:54
#02758:0014
#02852:64
#02854:0014
#0355a:6414
#03558:00240000
#03652:5414
#03654:00240000
#05158:54
#0525a:14
#05554:00140000
#05658:00140000
#05958:00140000
#06054:00140000
#06752:00140000
#0685a:00140000
#002320:0000000014343434
#003320:24
#005340:1424
#006380:1424
#007320:1424
#0083a0:1424
#009340:14
#009320:0024
#010380:14
#0103a0:0024
#011320:14
#011340:0024
#0123a0:14
#012380:0024
#0203a0:14342400
#023340:14
#023320:0024
#024380:14
#0243a0:0024
#0273a0:14
#027380:0024
#028320:14
#028340:0024
#029340:14
#029320:0034
#030340:34
#030320:0024
#031380:14
#0313a0:0034
#032380:34
#0323a0:0024
#0353a0:1424
#035380:00540000
#036320:1424
#036340:00540000
#037380:14
#0373a0:0034
#0383a0:34
#038380:0024
#039340:14
#039320:0034
#040320:34
#040340:0024
#041380:1436
#042380:36
#0423a0:0024
#043340:14
#043320:0036
#044320:3624
#0453a0:14
#045380:0024
#046340:14
#046320:0024
#047380:14
#0473a0:0024
#048320:14
#048340:0024
#051380:1434343434343434
#0523a0:24
#055340:14240000
#056380:14240000
#059380:14240000
#060340:14240000
#061320:1434
#061330:00540000
#061340:00000054
#062320:3424
#062350:00540000
#0633a0:1434
#063390:00540000
#063380:00000054
#0643a0:3424
#064370:00540000
#067320:14240000
#0683a0:14240000
