This file was generated by Ched 2.7.0.0.
#TITLE ""
#ARTIST ""
#DESIGNER ""
#DIFFICULTY 0
#PLAYLEVEL
#SONGID ""
#WAVE ""
#WAVEOFFSET 0
#JACKET ""
#REQUEST "ticks_per_beat 480"
#00002: 4
#BPM01: 163
#00008: 01
#TIL00: ""
#VOLUME: ""
#HISPEED 00
#MEASUREHS 00
#0581a:14
#05918:14
#06318:14
#06414:14
#06518:2616
#0651f:21
#07314:14
#07318:0014
#07114:0014
#07118:14
#06712:16
#06718:0016
#06912:1616
#05712:14
#05614:14
#05518:14
#0541a:14
#0541f:11
#04512:14
#04412:14
#04318:14
#04218:14
#04114:14
#04014:14
#0391a:14
#0381a:14
#03810:41
#03618:14
#03514:14
#0341a:14
#03312:14
#03218:14
#03114:14
#0301a:14
#03010:41
#0281a:0014
#02812:14
#02618:14
#02614:0014
#02018:1616
#01912:0016
#01918:16
#01812:0016
#01818:26
#01810:41
#01712:14
#01614:14
#01518:14
#0141a:14
#01312:14
#01214:14
#01118:14
#0101a:14
#01010:41
#00712:14
#00612:14
#0031a:14
#0021a:14
#00018:16
#02412:1616
#02318:0016
#02312:16
#02218:0016
#02212:16
#06812:16
#06818:0016
#00112:26
#02912:26
#06213:24
#06219:24
#07412:26
#03712:24
#07518:24
#04610:41
#06610:41
#0043a0:14
#0053a0:24
#008320:14
#009320:24
#021380:1626
#025320:1626
#027380:1424
#029320:1626
#046380:14
#0473a0:34
#0483a0:34
#049380:24
#050340:14
#051320:34
#052320:34
#053340:24
#060340:14
#061320:24
#066380:1626
#070320:1626
#0723a0:1424
#075380:14
#0753a0:0000000000003434
#0763a0:00343424
