This file was generated by Ched 2.7.0.0.
#TITLE ""
#ARTIST ""
#DESIGNER ""
#DIFFICULTY 0
#PLAYLEVEL
#SONGID ""
#WAVE ""
#WAVEOFFSET 0
#JACKET ""
#REQUEST "ticks_per_beat 480"
#00002: 4
#BPM01: 163
#00008: 01
#TIL00: ""
#VOLUME: ""
#HISPEED 00
#MEASUREHS 00
#01012:1400001400130000
#01015:0000130000000013
#01018:00000013
#0101a:2424002400000000
#01010:41
#01712:0014000024000000
#01715:000000000000000000000000000000000000000000000000000000000000000000000000000000000000000000000000000000000000000000000000000000000000000000000000000000000000000000000000000000000000000000000000000000000000000000000000000000000000000000000000000000000000000000000000000000000000000000000000000000000000000000000000000000000000000000000000000000000000000000000000000000000000000000000000000000000000000000000000000000000000000000000000000000000000000000000000000000000000000000000000000000000000000000000000000000000000000000000000000000000000000000000000000000000000000000000000000000000000000000000000000000000000000000000000000000000000000000000000000000000000000000000000000000000000000000000000000000000000000000000000000000000000000000000000000000000000000000000000000000000000000000000000000000000000000000000000000000000000000000000000000000000000000000000000000000000000000000000000000000000000000000000000000000000000000000000000000000000000000000000000000000000000000000000000000000000000000000000000000000000000000000000000000000000000000000000000000000000000000000000000000000000000000000000000000000000000000000000000000000000000000000000000000000000000000000000000000000000000000000000000000000000000000000000000000000000000000000000000000000000000000000000000000000000000000000000000000000000000000000000000000000000000000000000000000000000000000000000000000000000000000000000000000000000000000000000000000000000000000000000000130000000000000000000000000000000000000000000000000000000000000000000000000000000000000000000000000000000000000000000000000000000000000000000000000000000000000000000000000000000000000000000000000000000000000000000000000000000000000000000000000000000000000000000000000000000000000000000000000000000000000000000000000000000000000000000000000000000000000000000000000000000000000000000000000000000000000000000000000000000000000000000000000000000000000000000000000000000000000000000000000000000000000000000000000000000000000000000000000000000000000000000000000000000000000000000000000000000000000000000000000000000000000000000000000000000000000000000000000000000000000000000000000000000000000000000000000000000000000000000000000000000000000000000000000000000000000000000000000000000000000000000000000000000000000000000000000000000000000000000000000000000000000000000000000000000000000000000000000000000000000000000000000000000000000000000000000000000000000000000000001400000000000000000000000000000000000000000000000000000000000000000000000000000000000000000000000000000000000000000000000000000000000000000000000000000000000000000000000000000000000000000000000000000000000000000000000000000000000000000000000000000000000000000000000000000000000000000000000000000000000000000000000000000000000000000000000000000000000000000000000000000000000000000000000000000000000000000000000000000000000000000000000000000000000000000000000000000000000000000000000000000000000000000000000000000000000000000000000000000000000000000000000000000000000000000000000000000000000000000000000000000000000000000000000000000000000000000000000000000000000000000000000000000000000000000000000000000000000000000000000000000000000000000000000000000000000000000000000000000000000000000000000000000000000000000000000000000000000000000000000000000000000000000000000000000000000000000000000000000000000000000000000000000000000000000000000000000000000000000000000000000000000000000000000000000000000000000000000000000000000000000000000000000000000000000000000000000000000000000000000000000000000000000000000000000000000000000000000000000000000000000000000000000000000000000000000000000000000000000000000000000000000000000000000000000000000000000000000000000000000000000000000000000000000000000000000000000000000000000000000000000000000000000000000000000000000000000000000000000000000000000000000000000000000000000000000000000000000000000000
#01717:0000000000140000
#0171a:2424
#01718:00230000
#01815:0013000000000013
#01817:00130000
#01819:0000001300000000
#01812:23131400
#0181b:0013
#01818:26000013
#01810:41
#03213:12
#03216:0012
#0321b:12120000
#03218:00000012
#03313:1212
#0331b:1212
#03316:0000120000320000
#03318:0000120000320000
#03918:14000013
#03915:0000000000000013
#03917:0013000000000000
#0391b:0000130000130000
#03912:0014001300000000
#04012:1300000000000014
#04014:0013000000000000
#0401a:0000000000140000
#0401b:00130000
#04016:00130014
#04018:14
#0571a:00000014
#05712:12000014
#0571c:12
#05718:0032123200000000
#05716:0032123200000000
#07613:0013000000000000
#07618:00130000
#0761a:0013000000000000
#07615:00130000
#07612:00000025
#07619:00000025
#01918:0013000000000000
#01916:00130023
#01914:0000001300000000
#0191b:13130013
#01912:1413
#0191a:0014
#02018:24000000240000130000000014000000
#02015:0000001300000000
#02014:0024000000140000
#0201a:0000000000000014
#02012:0000000000000014
#02212:1300001314000000
#0221b:0013130000001300
#02216:2400000000000013
#02312:0013130000001300
#0231a:0014
#0231b:1300001300000000
#02316:13
#02317:00000023
#02815:1300001300000000
#02818:00001300000000130000000013000000
#02812:0000130000130023
#0281b:0000130000000023
#03618:12000013
#03615:00000000000000000000000000130000
#0361b:0000120000120000
#03613:00121200
#03616:1200001200000000
#0361a:0000000000000024
#03712:0014000014000000
#0371a:0000001400000000
#03717:0023000023000000
#03716:0000002300002300
#0381b:00130000
#03817:0000001300000000
#03812:0013
#03816:0000000000130000
#03815:00130000
#0381a:00000014
#03814:0000000000000014
#03810:41
#04315:0013000000001300
#04318:0000130000000013
#04312:1400000000130000
#0431b:0000001300000000
#04316:0000001300000000
#04415:0000000000130000
#04418:00000013
#0441b:0000000013000013
#04412:2400000013000013
#0441a:24230000
#04413:00230000
#04517:0013000000001300
#04516:0000001300000000
#0451b:0000001300000000
#04512:0013000000001300
#04615:00141400
#04619:2525001500000000
#04618:0000000000140014
#04612:2500002400001400
#04610:41
#05314:0014000000000000
#05318:0000001400000000
#05315:0000000000140000
#0531a:2414
#05317:000000000000000000000000000000000000000000000000000000000000000000000000000000000000000000000000000000000000000000000000000000000000000000000000000000000000000000000000000000000000000000000000000000000000000000000000000000000000000000000000000000000000000000000000000000000000000000000000000000000000000000000000000000000000000000000000000000000000000000000000000000000000000000000000000000000000000000000000000000000000000000000000000000000000000000000000000000000000000000000000000000000000000000000000000000000000000000000000000000000000000000000000000000000000000000000000000000000000000000000000000000000000000000000000000000000000000000000000000000000000000000000000000000000000000000000000000000000000000000000000000000000000000000000000000000000000000000000000000000000000000000000000000000000000000000000000000000000000000000000000000000000000000000000000000000000000000000000000000000000000000000000000000000000000000000000000000000000000000000000000000000000000000000000000000000000000000000000000000000000000000000000000000000000000000000000000000000000000000000000000000000000000000000000000000000000000000000000000000000000000000000000000000000000000000000000000000000000000000000000000000000000000000000000000000000000000000000000000000000000000000000000000000000000000000000000000000000000000000000000000000000000000000000000000000000000000000000000000000000000000000000000000000000000000000000000000000000000000000000000000000000000000000000000000000000000000000000000000000000000000000000000000000000000000000000000000000000000000000000000000000000000000000000000000000000000000000000000000000000000000000000000000000000000000000000000000000000000000000000000000000000000000000000000000000000000000000000000000000000000000000000000000000000000000000000000000000000000000000000000000000000000000000000000000000000000000000000000000000000000000000000000000000000000000000000000000000000000000000000000000000000000000000000000000000000000000000000000000000000000000000000000000000000000000000000000000000000000000000000000000000000000000000000000000000000000000000000000000000000000000000000000000000000000000000000000000000000000000000000000000000000000000000000000000000000000000000000000000000000000000000000000000000000000000000000000000000000000000000000000000000000000000000000000000000000000000000000000000000000000000000000000000000000000000000000000000000000000000000000000000001400000000000000000000000000000000000000000000000000000000000000000000000000000000000000000000000000000000000000000000000000000000000000000000000000000000000000000000000000000000000000000000000000000000000000000000000000000000000000000000000000000000000000000000000000000000000000000000000000000000000000000000000000000000000000000000000000000000000000000000000000000000000000000000000000000000000000000000000000000000000000000000000000000000000000000000000000000000000000000000000000000000000000000000000000000000000000000000000000000000000000000000000000000000000000000000000000000000000000000000000000000000000000000000000000000000000000000000000000000000000000000000000000000000000000000000000000000000000000000000000000000000000000000000000000000000000000000000000000000000000000000000000000000000000000000000000000000000000000000000000000000000000000000000000000000000000000000000000000000000000000000000000000000000000000000000000000000000000000000000000000000000000000000000000000000000000000000000000000000000000000000000000000000000000000000000000000000000000000000000000000000000000000000000000000000000000000000000000000000000000000000000000000000000000000000000000000000000000000000000000000000000000000000000000000000000000000000000000000000000000000000000000000000000000000000000000000000000000000000000000000000000000000000000000000000000000000000000000000000000000000000000000000000000000000000000000000000000000000000000
#05316:00240000
#05312:0024
#01315:0014000000000000
#01314:0000001400000000
#01313:0000000000140000
#01312:0000000000000014
#01316:00000024
#0131a:2424
#01318:00240000
#05418:0012001200000000
#05414:12120000
#05416:00001212
#0541a:0000000000120012
#0541f:11
#05518:0012001200000000
#05516:00001212
#05513:12120000
#0551b:0000000000120012
#0601a:2414000000000000
#06015:00000000000000000013001300000000
#06012:00000000240014000000000000130013
#06018:0000000023230000
#0601b:0000000000002323
#06515:23001300000000130000000000000000
#06518:0000001300000000
#0651b:00130000
#06512:00140014
#0651a:0014
#06516:0000000000140014
#0651f:21
#0661b:0013333300000000
#06616:0013000000000000
#06615:00130014
#06614:0000001300000000
#06612:0014
#0661a:00000014
#06610:41
#0751a:0000000014000014
#07515:0000000000131300
#07518:00000000000000000000001300130000
#07512:0000000000000014
#03017:12
#03018:0012
#0301b:53120000
#03014:00000012
#03010:41
#0311b:1212
#03118:00120000
#03117:1212
#03114:00120000
#04212:24140000
#04215:0000001300000013
#04218:0000000000130000
#0421a:24
#0411b:0013
#04116:0013
#04115:0013000000000000
#04112:0000001300000000
#0001a:0012001200120012
#00016:00120000
#00014:12000012
#00015:0012
#0111a:1400001400000000
#01118:0000130000000013
#0111b:0000000000130000
#01115:00000013
#01112:2424002400000000
#01216:00140000
#01215:0000000013000013
#01218:0013
#01212:2424002400002400
#0121a:2424002400002400
#00219:0000000000000013
#0021b:1313
#00214:00000013
#00218:0013001300000000
#00215:00130000
#00212:2413
#00512:1300130013000013
#0051b:13131300
#00515:0013000000000000
#00518:0000001300000000
#00314:0000000000000013
#00312:1313
#00319:00000013
#00315:0013001300000000
#00318:00130000
#0031b:1313
#0041b:1313
#00417:0000000000130000
#00418:0013001300000013
#00415:00130013
#00412:1313
#0061b:0000000000000013
#00615:0013000000000000
#00613:0000001300000000
#00617:0013
#00616:00000013
#00918:0013000023000000
#00915:00132300
#00912:1300001300000000
#0091b:13130000
#00812:0013000000000000
#0081b:0000001300000000
#00815:0000230013000013
#00818:2323
#00718:0013000000000000
#0071a:0000001300000000
#00716:0013
#00717:00000013
#00712:0000000000000013
#01415:00130000
#01412:0000001400130000
#01414:00000013
#01416:0000000000640013
#0141a:2424002400000064
#01418:00000064
#01518:13130000
#0151a:0000001400000000
#0151b:0000000000130000
#01519:00000013
#01517:0000000000000013
#01512:2424002400000064
#01516:0000000000640000
#01514:00000064
#01615:0014000000000000
#01616:0000000000140014
#01617:0000001400000000
#0161b:23
#01612:00230024
#0161a:0024
#0211b:0013
#02112:0013000013001400
#02115:00130000
#02118:0000001300000000
#0211a:00000014
#02415:00000000000000130000000000000000
#02418:0024001300140000
#02414:24240014
#02412:0000000000000024
#0241a:0000000000000024
#0251a:00140000
#02512:0000001400001300
#02516:0014
#02517:00000014
#02615:0000001300001300
#02618:00000000000000130000000000001300
#02612:0014000000130000
#0261a:24140000
#02712:13001324
#02715:0013001300000000
#0271b:13130000
#02718:0013001300000000
#0271a:00000024
#02917:00000013
#02912:00000013
#02916:0022000000000000
#02918:00002200000000000000000000530000
#0291b:0022
#02913:0022
#02919:0000000000000053
#0291a:00000000000000000000000000000053
#03513:0000000000120000
#03514:0012000000000000
#03516:12121200
#03518:12121200
#0351a:0000001200000000
#0351b:0000000000120000
#03413:00000012
#03416:12120000
#03418:12
#0341b:0012
#04719:15
#04717:00141400
#04712:2525001500000000
#04714:0000000000140014
#0471a:0000002400001400
#04812:1525002500001500
#04819:2515002500001500
#04815:00161500
#04818:0000000000000013
#04816:000000000000000000000000000000000000000000000000000000000000000000000000000000000000000000000000000000000000000000000000000000000000000000000000000000000000000000000000000000000000000000000000000000000000000000000000000000000000000000000000000000000000000000000000000000000000000000000000000000000000000000000000000000000000000000000000000000000000000000000000000000000000000000000000000000000000000000000000000000000000000000000000000000000000000000000000000000000000000000000000000000000000000000000000000000000000000000000000000000000000000000000000000000000000000000000000000000000000000000000000000000000000000000000000000000000000000000000000000000000000000000000000000000000000000000000000000000000000000000000000000000000000000000000000000000000000000000000000000000000000000000000000000000000000000000000000000000000000000000000000000000000000000000000000000000000000000000000000000000000000000000000000000000000000000000000000000000000000000000000000000000000000000000000000000000000000000000000000000000000000000000000000000000000000000000000000000000000000000000000000000000000000000000000000000000000000000000000000000000000000000000000000000000000000000000000000000000000000000000000000000000000000000000000000000000000000000000000000000000000000000000000000000000000000000000000000000000000000000000000000000000000000000000000000000000000000000000000000000000000000000000000000000000000000000000000000000000000000000000000000000000000000000000000000000000000000000000000000000000000000000000000000000000000000000000000000000000000000000000000000000000000000000000000000000000000000000000000000000000000000000000000000000000000000000000000000000000000000000000000000000000000000000000000000000000000000000000000000000000000000000000000000000000000000000000000000000000000000000000000000000000000000000000000000000000000000000000000000000000000000000000000000000000000000000000000000000000000000000000000015000000000000000000000000000000000000000000000000000000000000000000000000000000000000000000000000000000000000000000000000000000000000000000000000000000000000000000000000000000000000000000000000000000000000000000000000000000000000000000000000000000000000000000000000000000000000000000000000000000000000000000000000000000000000000000000000000000000000000000000000000000000000000000000000000000000000000000000000000000000000000000000000000000000000000000000000000000000000000000000000000000000000000000000000000000000000000000000000000000000000000000000000000000000000000000000000000000000000000000000000000000000000000000000000000000000000000000000000000000000000000000000000000000000000000000000000000000000000000000000000000000000000000000000000000000000000000000000000000000000000000000000000000000000000000000000000000000000000000000000000000000000000000000000000000000000000000000000000000000000000000000000000000000000000000000000000000000000000000000000000000000000000000000000000000000000000000000000000000000000000000000000000000000000000000000000000000000000000000000000000000000000000000000000000000000000000000000000000000000000000000000000000000000000000000000000000000000000000000000000000000000000000000000000000000000000000000000000000000000000000000000000000000000000000000000000000000000000000000000000000000000000000000000000000000000000000000000000000000000000000000000000000000000000000000000000000000000000000000000000000000000000000000000000000000000000000000000000000000000000000000000000000000000000000000000000000000000000000000000000000000000000000000000000000000000000000000000000000000000000000000000000000000000000000000000000000000000000000000000000000000000000000000000000000000000000000000000000000000000000000000000000000000000000000000000000000000000000000000000000000000000000000000000000000000000000000000000000000000000000000000000000000000000000000000000000000000000000000000000000000
#04915:2313000000000000
#04918:0000241400000000
#04913:0000000025150000
#04916:0000000000000015
#04919:00000025
#05019:0000151500150000
#05015:00001513
#05018:0000000000000013
#05012:2525002500000000
#05112:1500151500150000
#05116:0015
#05115:0000000000000013
#05118:00000013
#05119:2525002500000000
#0521a:24140000
#05217:0014001400000000
#05212:14002414
#05214:00140000
#05215:0000000000140014
#05218:00000014
#05817:0012000000001200
#0581a:12
#05816:0000001200000000
#05818:0012
#05819:00120000
#05815:0000000000120000
#05814:0000000000000012
#05916:0013000000000000
#05918:0013
#0591a:13
#05919:00130000
#05915:0000001300000000
#05914:0000000000130000
#05913:0000000000000013
#05917:00000013
#06217:0000000022120000
#0621a:22
#06218:0022000000000000
#06216:00220000
#06214:0000002200000000
#06316:12
#06318:22132415
#06314:0014
#06315:00230000
#06313:00000025
#06712:1300001314000013
#0671b:0013130000001300
#06716:00000013
#06717:2300000000000013
#0681a:0014
#0681a:0014
#0681b:1300001300000000
#06812:0013130000002400
#06816:1300000000000014
#06817:00000014
#06918:00001300000000130000000000000000
#06915:0000001300000000
#0691a:14140014
#06912:00131400
#06916:0000000000140014
#07012:0013333300001400
#07017:0013000000002300
#07018:00130000
#07019:0000001300000000
#0701a:0014
#07116:1313000000000014
#0711a:00140000
#07115:0000001300000000
#07118:00000000000000130000130000000000
#07112:00001414
#07212:14006424
#0721a:24005424
#07214:0054006400000000
#07218:0064005400000000
#07216:00640000
#07317:1313000000000000
#07318:0000001300000000
#07315:00000000000000130000130000000000
#07316:0000000000000014
#07312:14140000
#0731a:00001414
#06116:00240000
#06117:0022
#06115:26
#07412:24230023
#0741b:2323
#00112:2300002300000000
#00118:0023230000000000
#00115:00000023000000002300000000000000
#0011b:0023
#06418:2200230024252600
#06416:0022000000000000
#06415:0000002300000000
#06414:00000000000000000024000000000000
#06413:00000000000000000000002500000000
#03253:62
#03256:0062
#0325b:00620000
#03258:00000062
#03353:6262
#0335b:5262
#03356:00620012
#03358:00520012
#07658:00530000
#0765a:0014
#07655:00630000
#07652:0014
#00952:00000016
#00958:00006316
#00955:0053
#01852:0014
#01858:46
#0195a:0014
#01956:00000063
#02058:00000000000000630000000000000000
#0205a:0000000000000064
#02052:0000000000000014
#02252:5314
#0225b:00530000
#02257:0013
#02752:63000014
#0275a:00000014
#02755:0023000000000000
#0275b:00530000
#02758:0000002300000000
#02858:00000000000000630000000000000000
#03658:62
#0365a:0000000000000014
#0365b:00520000
#03653:0062
#0385b:00530000
#03857:0000002300000000
#03852:1463
#03856:0000000000230000
#0385a:14
#03957:0063000000000000
#0395b:00230000
#03952:0014005300000000
#0405b:00530000
#04056:00530000
#04152:00000013
#04157:00000013
#0415b:0053
#04156:0063
#04557:0063000000001300
#04556:0000006300000000
#0455b:0000006300000000
#04552:00000013
#01355:0034000000000000
#01354:0000003400000000
#01353:0000000000340000
#01352:0000000000000034
#0575c:62
#05758:00520000
#05752:52000014
#05756:00620000
#0575a:00000014
#06157:00000012
#0665b:0053000000000000
#06652:0014
#06657:0014
#0665a:00000014
#06655:00000014
#01052:0000003400000000
#0105a:0000006400000000
#01755:000000000000000000000000000000000000000000000000000000000000000000000000000000000000000000000000000000000000000000000000000000000000000000000000000000000000000000000000000000000000000000000000000000000000000000000000000000000000000000000000000000000000000000000000000000000000000000000000000000000000000000000000000000000000000000000000000000000000000000000000000000000000000000000000000000000000000000000000000000000000000000000000000000000000000000000000000000000000000000000000000000000000000000000000000000000000000000000000000000000000000000000000000000000000000000000000000000000000000000000000000000000000000000000000000000000000000000000000000000000000000000000000000000000000000000000000000000000000000000000000000000000000000000000000000000000000000000000000000000000000000000000000000000000000000000000000000000000000000000000000000000000000000000000000000000000000000000000000000000000000000000000000000000000000000000000000000000000000000000000000000000000000000000000000000000000000000000000000000000000000000000000000000000000000000000000000000000000000000000000000000000000000000000000000000000000000000000000000000000000000000000000000000000000000000000000000000000000000000000000000000000000000000000000000000000000000000000000000000000000000000000000000000000000000000000000000000000000000000000000000000000000000000000000000000000000000000000000000000000000000000000000000000000000000000000000000000000000000000000000000000000000000000000000000000000000000000000000000000000000000000000000000000000000000000000000000000000000000000000000000000000000000000000000000000000000000000000000000000000000000000000000000000000000000000000000000000000000000000000000000000000000000000000000000000000000000000000000000000000000000000000000000000000000000000000000000000000000000000000000000000000000000000000000000000000000000000000000000000000000000000000000000000000000000000000000000000000000000000000000000000000000000000000000000000000000000000000000000000000000000000000000000000000000000000000000000000000000000000000000000000000000000000000000000000000000000000000000000000000000000000000000000000000000000000000000000000000000000000000000000000000000000000000000000000000000000000000000000000000000000000000000000000000000000000000000000000000000000000000000000000000000000000000000000000000000000000000000000000000000000000000000000000000000000000000000000000000000000000000000000002400000000000000000000000000000000000000000000000000000000000000000000000000000000000000000000000000000000000000000000000000000000000000000000000000000000000000000000000000000000000000000000000000000000000000000000000000000000000000000000000000000000000000000000000000000000000000000000000000000000000000000000000000000000000000000000000000000000000000000000000000000000000000000000000000000000000000000000000000000000000000000000000000000000000000000000000000000000000000000000000000000000000000000000000000000000000000000000000000000000000000000000000000000000000000000000000000000000000000000000000000000000000000000000000000000000000000000000000000000000000000000000000000000000000000000000000000000000000000000000000000000000000000000000000000000000000000000000000000000000000000000000000000000000000000000000000000000000000000000000000000000000000000000000000000000000000000000000000000000000000000000000000000000000000000000000000000000000000000000000000000000000000000000000000000000000000000000000000000000000000000000000000000000000000000000000000000000000000000000000000000000000000000000000000000000000000000000000000000000000000000000000000000000000000000000000000000000000000000000000000000000000000000000000000000000000000000000000000000000000000000000000000000000000000000000000000000000000000000000000000000000000000000000000000000000000000000000000000000000000000000000000000000000000000000000000000000000000000000000000
#01757:0000000000240000
#0175a:00006444
#01752:00006434
#03057:52
#03058:0052
#0305b:00620000
#03054:00000062
#0315b:5252
#03158:00520012
#03157:5252
#03154:00520012
#04659:0000004500000000
#04652:3500006400000000
#04655:0024
#00152:63
#0015b:0063
#00155:00000016
#0115a:0000004400000000
#01152:0000006400000000
#01252:0000005400000000
#0125a:0000006400000000
#01255:0023
#01258:0023
#0055b:0053
#00552:0063
#0025b:0063
#00252:14
#00352:0053
#0045b:0063
#00457:0000000000230000
#00657:0063
#00855:0053
#00858:0063
#00756:0053
#01452:0000003400000000
#0145a:0000006400000000
#0155a:0000004400000000
#01552:0000005400000000
#0215b:0013
#02152:00001314
#0215a:00000014
#0235a:0014
#0235b:63
#02352:00630000
#02356:0013
#02357:00000063
#02455:00000000000000530000000000000000
#02452:0000000000000064
#0245a:0000000000000054
#02658:00000000000000630000000000000000
#0265a:14
#02556:0014
#02552:00000053
#02956:0062000000000000
#02958:0052000000000000
#0295b:0012
#02953:0012
#03553:0000000000220000
#03554:0022000000000000
#03556:52525212
#03558:62626212
#0355a:0000002200000000
#0355b:0000000000220000
#03453:00000062
#03456:00620000
#03458:62
#0345b:0062
#03757:0063
#03756:00000053
#04252:14
#0425a:14
#0435b:0000006300000000
#04452:6400000000000013
#0445a:54530000
#04453:00630000
#0445b:0000000000000013
#04759:45
#04752:0000003500000000
#04757:0024
#0475a:0000006400000000
#04855:0025
#04852:0000006500000000
#04859:0000005500000000
#04856:000000000000000000000000000000000000000000000000000000000000000000000000000000000000000000000000000000000000000000000000000000000000000000000000000000000000000000000000000000000000000000000000000000000000000000000000000000000000000000000000000000000000000000000000000000000000000000000000000000000000000000000000000000000000000000000000000000000000000000000000000000000000000000000000000000000000000000000000000000000000000000000000000000000000000000000000000000000000000000000000000000000000000000000000000000000000000000000000000000000000000000000000000000000000000000000000000000000000000000000000000000000000000000000000000000000000000000000000000000000000000000000000000000000000000000000000000000000000000000000000000000000000000000000000000000000000000000000000000000000000000000000000000000000000000000000000000000000000000000000000000000000000000000000000000000000000000000000000000000000000000000000000000000000000000000000000000000000000000000000000000000000000000000000000000000000000000000000000000000000000000000000000000000000000000000000000000000000000000000000000000000000000000000000000000000000000000000000000000000000000000000000000000000000000000000000000000000000000000000000000000000000000000000000000000000000000000000000000000000000000000000000000000000000000000000000000000000000000000000000000000000000000000000000000000000000000000000000000000000000000000000000000000000000000000000000000000000000000000000000000000000000000000000000000000000000000000000000000000000000000000000000000000000000000000000000000000000000000000000000000000000000000000000000000000000000000000000000000000000000000000000000000000000000000000000000000000000000000000000000000000000000000000000000000000000000000000000000000000000000000000000000000000000000000000000000000000000000000000000000000000000000000000000000000000000000000000000000000000000000000000000000000000000000000000000000000000000000000000000000025000000000000000000000000000000000000000000000000000000000000000000000000000000000000000000000000000000000000000000000000000000000000000000000000000000000000000000000000000000000000000000000000000000000000000000000000000000000000000000000000000000000000000000000000000000000000000000000000000000000000000000000000000000000000000000000000000000000000000000000000000000000000000000000000000000000000000000000000000000000000000000000000000000000000000000000000000000000000000000000000000000000000000000000000000000000000000000000000000000000000000000000000000000000000000000000000000000000000000000000000000000000000000000000000000000000000000000000000000000000000000000000000000000000000000000000000000000000000000000000000000000000000000000000000000000000000000000000000000000000000000000000000000000000000000000000000000000000000000000000000000000000000000000000000000000000000000000000000000000000000000000000000000000000000000000000000000000000000000000000000000000000000000000000000000000000000000000000000000000000000000000000000000000000000000000000000000000000000000000000000000000000000000000000000000000000000000000000000000000000000000000000000000000000000000000000000000000000000000000000000000000000000000000000000000000000000000000000000000000000000000000000000000000000000000000000000000000000000000000000000000000000000000000000000000000000000000000000000000000000000000000000000000000000000000000000000000000000000000000000000000000000000000000000000000000000000000000000000000000000000000000000000000000000000000000000000000000000000000000000000000000000000000000000000000000000000000000000000000000000000000000000000000000000000000000000000000000000000000000000000000000000000000000000000000000000000000000000000000000000000000000000000000000000000000000000000000000000000000000000000000000000000000000000000000000000000000000000000000000000000000000000000000000000000000000000000000000000000000000000000
#04955:0013000000000000
#04958:0000001400000000
#04953:0000000000150000
#04956:0000000000000025
#04959:00000065
#05059:4500004500000000
#05055:0025
#05052:0000005500000000
#05152:3500003500000000
#05156:0025
#05159:0000006500000000
#0525a:64640000
#05257:0064006400000000
#05252:00005454
#05255:0000000000540054
#05355:0000000000240000
#0535a:00005444
#05357:000000000000000000000000000000000000000000000000000000000000000000000000000000000000000000000000000000000000000000000000000000000000000000000000000000000000000000000000000000000000000000000000000000000000000000000000000000000000000000000000000000000000000000000000000000000000000000000000000000000000000000000000000000000000000000000000000000000000000000000000000000000000000000000000000000000000000000000000000000000000000000000000000000000000000000000000000000000000000000000000000000000000000000000000000000000000000000000000000000000000000000000000000000000000000000000000000000000000000000000000000000000000000000000000000000000000000000000000000000000000000000000000000000000000000000000000000000000000000000000000000000000000000000000000000000000000000000000000000000000000000000000000000000000000000000000000000000000000000000000000000000000000000000000000000000000000000000000000000000000000000000000000000000000000000000000000000000000000000000000000000000000000000000000000000000000000000000000000000000000000000000000000000000000000000000000000000000000000000000000000000000000000000000000000000000000000000000000000000000000000000000000000000000000000000000000000000000000000000000000000000000000000000000000000000000000000000000000000000000000000000000000000000000000000000000000000000000000000000000000000000000000000000000000000000000000000000000000000000000000000000000000000000000000000000000000000000000000000000000000000000000000000000000000000000000000000000000000000000000000000000000000000000000000000000000000000000000000000000000000000000000000000000000000000000000000000000000000000000000000000000000000000000000000000000000000000000000000000000000000000000000000000000000000000000000000000000000000000000000000000000000000000000000000000000000000000000000000000000000000000000000000000000000000000000000000000000000000000000000000000000000000000000000000000000000000000000000000000000000000000000000000000000000000000000000000000000000000000000000000000000000000000000000000000000000000000000000000000000000000000000000000000000000000000000000000000000000000000000000000000000000000000000000000000000000000000000000000000000000000000000000000000000000000000000000000000000000000000000000000000000000000000000000000000000000000000000000000000000000000000000000000000000000000000000000000000000000000000000000000000000000000000000000000000000000000000000000000000000000000000002400000000000000000000000000000000000000000000000000000000000000000000000000000000000000000000000000000000000000000000000000000000000000000000000000000000000000000000000000000000000000000000000000000000000000000000000000000000000000000000000000000000000000000000000000000000000000000000000000000000000000000000000000000000000000000000000000000000000000000000000000000000000000000000000000000000000000000000000000000000000000000000000000000000000000000000000000000000000000000000000000000000000000000000000000000000000000000000000000000000000000000000000000000000000000000000000000000000000000000000000000000000000000000000000000000000000000000000000000000000000000000000000000000000000000000000000000000000000000000000000000000000000000000000000000000000000000000000000000000000000000000000000000000000000000000000000000000000000000000000000000000000000000000000000000000000000000000000000000000000000000000000000000000000000000000000000000000000000000000000000000000000000000000000000000000000000000000000000000000000000000000000000000000000000000000000000000000000000000000000000000000000000000000000000000000000000000000000000000000000000000000000000000000000000000000000000000000000000000000000000000000000000000000000000000000000000000000000000000000000000000000000000000000000000000000000000000000000000000000000000000000000000000000000000000000000000000000000000000000000000000000000000000000000000000000000000000000000000000000000
#05352:00006434
#06255:00000016
#06257:0000000000220000
#06556:0000000000000064
#06552:00340034
#0655a:0044
#06558:46
#06752:5314
#0675b:00530000
#06756:0014
#0685a:0014
#0685a:0014
#0685b:63
#06852:00630064
#06856:0000000014000024
#06857:00000044
#07052:0063000000001400
#0705a:0014
#07055:0014
#07057:00000063
#06956:0000000000000054
#06952:3434
#0695a:00440044
#0715a:14
#07152:0014
#07452:00630063
#0745b:5353
#07252:00000014
#0725a:00000014
#07352:14140000
#0735a:00001414
#001320:13
#001350:0023000000000000
#0013b0:0013
#001350:00000026
#0023b0:0013
#002370:00000023
#003320:0013
#003360:00000023
#0043b0:00001323
#004370:0000000000530000
#0053b0:0013
#005380:00000023
#005321:0013
#005351:00000023
#0063b1:1323000000000000
#006391:0000132300000000
#006371:0013
#0063b1:00000023
#007321:1323000000000000
#007341:0000132300000000
#007361:0013
#007321:00000023
#008381:1323000000000000
#008351:0000132300000000
#008381:0013
#0083b1:00000023
#008350:0013
#008320:00000023
#009350:0013
#009320:00000026
#009381:00001326
#0103a1:0000001400000000
#010361:0000000000240000
#011321:0000001400000000
#011361:0000000000240000
#012321:0000001400240000
#012351:0053
#0123a0:0000001400240000
#012380:0053
#0143a0:0000001400000000
#014360:0000000000240000
#015320:0000001400000000
#015360:0000000000240000
#0163b0:13230000
#016321:00132300
#0163a0:00001424
#016321:00000014
#017321:24
#0173a1:00001424
#017371:0000000000540000
#017320:00001424
#017350:000000000000000000000000000000000000000000000000000000000000000000000000000000000000000000000000000000000000000000000000000000000000000000000000000000000000000000000000000000000000000000000000000000000000000000000000000000000000000000000000000000000000000000000000000000000000000000000000000000000000000000000000000000000000000000000000000000000000000000000000000000000000000000000000000000000000000000000000000000000000000000000000000000000000000000000000000000000000000000000000000000000000000000000000000000000000000000000000000000000000000000000000000000000000000000000000000000000000000000000000000000000000000000000000000000000000000000000000000000000000000000000000000000000000000000000000000000000000000000000000000000000000000000000000000000000000000000000000000000000000000000000000000000000000000000000000000000000000000000000000000000000000000000000000000000000000000000000000000000000000000000000000000000000000000000000000000000000000000000000000000000000000000000000000000000000000000000000000000000000000000000000000000000000000000000000000000000000000000000000000000000000000000000000000000000000000000000000000000000000000000000000000000000000000000000000000000000000000000000000000000000000000000000000000000000000000000000000000000000000000000000000000000000000000000000000000000000000000000000000000000000000000000000000000000000000000000000000000000000000000000000000000000000000000000000000000000000000000000000000000000000000000000000000000000000000000000000000000000000000000000000000000000000000000000000000000000000000000000000000000000000000000000000000000000000000000000000000000000000000000000000000000000000000000000000000000000000000000000000000000000000000000000000000000000000000000000000000000000000000000000000000000000000000000000000000000000000000000000000000000000000000000000000000000000000000000000000000000000000000000000000000000000000000000000000000000000000000000000000000000000000000000000000000000000000000000000000000000000000000000000000000000000000000000000000000000000000000000000000000000000000000000000000000000000000000000000000000000000000000000000000000000000000000000000000000000000000000000000000000000000000000000000000000000000000000000000000000000000000000000000000000000000000000000000000000000000000000000000000000000000000000000000000000000000000000000000000000000000000000000000000000000000000000000000000000000000000000000000000000000005400000000000000000000000000000000000000000000000000000000000000000000000000000000000000000000000000000000000000000000000000000000000000000000000000000000000000000000000000000000000000000000000000000000000000000000000000000000000000000000000000000000000000000000000000000000000000000000000000000000000000000000000000000000000000000000000000000000000000000000000000000000000000000000000000000000000000000000000000000000000000000000000000000000000000000000000000000000000000000000000000000000000000000000000000000000000000000000000000000000000000000000000000000000000000000000000000000000000000000000000000000000000000000000000000000000000000000000000000000000000000000000000000000000000000000000000000000000000000000000000000000000000000000000000000000000000000000000000000000000000000000000000000000000000000000000000000000000000000000000000000000000000000000000000000000000000000000000000000000000000000000000000000000000000000000000000000000000000000000000000000000000000000000000000000000000000000000000000000000000000000000000000000000000000000000000000000000000000000000000000000000000000000000000000000000000000000000000000000000000000000000000000000000000000000000000000000000000000000000000000000000000000000000000000000000000000000000000000000000000000000000000000000000000000000000000000000000000000000000000000000000000000000000000000000000000000000000000000000000000000000000000000000000000000000000000000000000000000000000000
#019360:00000013
#020320:23
#020380:00000000000000130000000000000000
#0203b0:0000000000230000
#0203a0:0000000000000014
#021360:0024000000000000
#022320:13
#022360:00230000
#0223b1:00130000
#022371:0023
#0233b1:13
#023371:00230000
#023320:00130000
#023360:0023
#023370:00000013
#0243b0:23
#024350:00000000000000130000000000000000
#024320:0000000000230000
#024320:0000000000000014
#025360:0022000000000000
#0243a1:0000000000000014
#025381:0022000000000000
#025321:00000013
#026361:23
#026381:00000000000000130000000000000000
#0263b1:0000000000230000
#027321:13230000
#027351:0033000000000000
#0273b0:00132300
#027380:0000003300000000
#028380:00000000000000130000000000000000
#0283b0:0000000000230000
#029360:0012000000000000
#029330:0000002200000000
#029381:0012000000000000
#0293b1:0000002200000000
#030371:12
#030341:00520032
#031371:3232
#031341:00320022
#0303b0:00120052
#030380:0032
#0313b0:3232
#031380:00320022
#032330:12000052
#032360:00523200
#033330:3232
#033360:0000320000322200
#0323b1:00120000
#032381:00005232
#0333b1:3232
#033381:0000320000322200
#034381:12000052
#0343b1:00523200
#035381:32323222
#0353a1:0000005200000000
#0353b1:0000000000520000
#034360:00120000
#034330:00005232
#035360:32323222
#035340:0052000000000000
#035330:0000000000520000
#036380:1222
#0363b0:00320000
#036331:0012
#036361:00000022
#037371:0013
#0373a1:00000054
#0383a1:24
#037360:00000013
#038320:24
#0383b0:00132300
#038370:0000005300000000
#038321:00001323
#038361:0000000000530000
#039371:0013002300000000
#0393b1:00530000
#039320:0000001300000000
#039360:0000000000230000
#0403b0:00130000
#040370:0023
#040361:00130000
#040321:0023
#0413b1:1323000000000000
#041381:0000132300000000
#0413b1:0013
#041371:00000023
#041360:0013
#041320:00000023
#0423a0:00142400
#042321:00001424
#0423a0:00000014
#0433a0:24
#0433b0:0000001300000000
#043370:0000000000230000
#044320:14
#044350:0023000000000000
#0443a1:14
#044381:0023000000000000
#044331:00130000
#044361:0000002200000000
#0443a0:00130000
#044380:0000002200000000
#045370:0013000000230000
#0453b0:0000003300000000
#045361:0000001300000000
#045321:0000000000230000
#046321:0000001400240000
#046351:0054
#0473a1:0000001400240000
#047371:0054
#048321:0000001500250000
#048351:0055
#048390:0000001500250000
#048360:000000000000000000000000000000000000000000000000000000000000000000000000000000000000000000000000000000000000000000000000000000000000000000000000000000000000000000000000000000000000000000000000000000000000000000000000000000000000000000000000000000000000000000000000000000000000000000000000000000000000000000000000000000000000000000000000000000000000000000000000000000000000000000000000000000000000000000000000000000000000000000000000000000000000000000000000000000000000000000000000000000000000000000000000000000000000000000000000000000000000000000000000000000000000000000000000000000000000000000000000000000000000000000000000000000000000000000000000000000000000000000000000000000000000000000000000000000000000000000000000000000000000000000000000000000000000000000000000000000000000000000000000000000000000000000000000000000000000000000000000000000000000000000000000000000000000000000000000000000000000000000000000000000000000000000000000000000000000000000000000000000000000000000000000000000000000000000000000000000000000000000000000000000000000000000000000000000000000000000000000000000000000000000000000000000000000000000000000000000000000000000000000000000000000000000000000000000000000000000000000000000000000000000000000000000000000000000000000000000000000000000000000000000000000000000000000000000000000000000000000000000000000000000000000000000000000000000000000000000000000000000000000000000000000000000000000000000000000000000000000000000000000000000000000000000000000000000000000000000000000000000000000000000000000000000000000000000000000000000000000000000000000000000000000000000000000000000000000000000000000000000000000000000000000000000000000000000000000000000000000000000000000000000000000000000000000000000000000000000000000000000000000000000000000000000000000000000000000000000000000000000000000000000000000000000000000000000000000000000000000000000000000000000000000000000000000000000000000000000000055000000000000000000000000000000000000000000000000000000000000000000000000000000000000000000000000000000000000000000000000000000000000000000000000000000000000000000000000000000000000000000000000000000000000000000000000000000000000000000000000000000000000000000000000000000000000000000000000000000000000000000000000000000000000000000000000000000000000000000000000000000000000000000000000000000000000000000000000000000000000000000000000000000000000000000000000000000000000000000000000000000000000000000000000000000000000000000000000000000000000000000000000000000000000000000000000000000000000000000000000000000000000000000000000000000000000000000000000000000000000000000000000000000000000000000000000000000000000000000000000000000000000000000000000000000000000000000000000000000000000000000000000000000000000000000000000000000000000000000000000000000000000000000000000000000000000000000000000000000000000000000000000000000000000000000000000000000000000000000000000000000000000000000000000000000000000000000000000000000000000000000000000000000000000000000000000000000000000000000000000000000000000000000000000000000000000000000000000000000000000000000000000000000000000000000000000000000000000000000000000000000000000000000000000000000000000000000000000000000000000000000000000000000000000000000000000000000000000000000000000000000000000000000000000000000000000000000000000000000000000000000000000000000000000000000000000000000000000000000000000000000000000000000000000000000000000000000000000000000000000000000000000000000000000000000000000000000000000000000000000000000000000000000000000000000000000000000000000000000000000000000000000000000000000000000000000000000000000000000000000000000000000000000000000000000000000000000000000000000000000000000000000000000000000000000000000000000000000000000000000000000000000000000000000000000000000000000000000000000000000000000000000000000000000000000000000000000000000000000000000
#049390:00000015
#049360:0000000000000055
#050390:25
#050320:0000001500250000
#050350:0055
#051390:0000001500250000
#051360:0055
#0523a0:14342400
#052370:0034003400000000
#052321:00001434
#052351:0000000000340034
#053321:24
#053321:00001424
#053351:0000000000540000
#0533a0:00001424
#053370:000000000000000000000000000000000000000000000000000000000000000000000000000000000000000000000000000000000000000000000000000000000000000000000000000000000000000000000000000000000000000000000000000000000000000000000000000000000000000000000000000000000000000000000000000000000000000000000000000000000000000000000000000000000000000000000000000000000000000000000000000000000000000000000000000000000000000000000000000000000000000000000000000000000000000000000000000000000000000000000000000000000000000000000000000000000000000000000000000000000000000000000000000000000000000000000000000000000000000000000000000000000000000000000000000000000000000000000000000000000000000000000000000000000000000000000000000000000000000000000000000000000000000000000000000000000000000000000000000000000000000000000000000000000000000000000000000000000000000000000000000000000000000000000000000000000000000000000000000000000000000000000000000000000000000000000000000000000000000000000000000000000000000000000000000000000000000000000000000000000000000000000000000000000000000000000000000000000000000000000000000000000000000000000000000000000000000000000000000000000000000000000000000000000000000000000000000000000000000000000000000000000000000000000000000000000000000000000000000000000000000000000000000000000000000000000000000000000000000000000000000000000000000000000000000000000000000000000000000000000000000000000000000000000000000000000000000000000000000000000000000000000000000000000000000000000000000000000000000000000000000000000000000000000000000000000000000000000000000000000000000000000000000000000000000000000000000000000000000000000000000000000000000000000000000000000000000000000000000000000000000000000000000000000000000000000000000000000000000000000000000000000000000000000000000000000000000000000000000000000000000000000000000000000000000000000000000000000000000000000000000000000000000000000000000000000000000000000000000000000000000000000000000000000000000000000000000000000000000000000000000000000000000000000000000000000000000000000000000000000000000000000000000000000000000000000000000000000000000000000000000000000000000000000000000000000000000000000000000000000000000000000000000000000000000000000000000000000000000000000000000000000000000000000000000000000000000000000000000000000000000000000000000000000000000000000000000000000000000000000000000000000000000000000000000000000000000000000000000000000000005400000000000000000000000000000000000000000000000000000000000000000000000000000000000000000000000000000000000000000000000000000000000000000000000000000000000000000000000000000000000000000000000000000000000000000000000000000000000000000000000000000000000000000000000000000000000000000000000000000000000000000000000000000000000000000000000000000000000000000000000000000000000000000000000000000000000000000000000000000000000000000000000000000000000000000000000000000000000000000000000000000000000000000000000000000000000000000000000000000000000000000000000000000000000000000000000000000000000000000000000000000000000000000000000000000000000000000000000000000000000000000000000000000000000000000000000000000000000000000000000000000000000000000000000000000000000000000000000000000000000000000000000000000000000000000000000000000000000000000000000000000000000000000000000000000000000000000000000000000000000000000000000000000000000000000000000000000000000000000000000000000000000000000000000000000000000000000000000000000000000000000000000000000000000000000000000000000000000000000000000000000000000000000000000000000000000000000000000000000000000000000000000000000000000000000000000000000000000000000000000000000000000000000000000000000000000000000000000000000000000000000000000000000000000000000000000000000000000000000000000000000000000000000000000000000000000000000000000000000000000000000000000000000000000000000000000000000000000000000000
#056340:1222000000000000
#056381:1222000000000000
#0563a1:0000122200000000
#056360:0000122200000000
#056330:0000000012220000
#056381:0000000012220000
#0563b1:0000000000001222
#056360:0000000000001222
#0573c0:1222
#057380:0032323200000000
#057321:1222
#057361:0032323200000000
#061371:0000000012322200
#062371:0000000012320000
#062351:00000026
#064381:00000016
#065381:26
#065361:0000000000000014
#0663b1:0033333300000000
#066371:0024
#067321:13
#067361:00240000
#0673b0:00130000
#067360:0024
#0683b0:13
#068360:00240000
#068321:00130000
#068361:0024
#068321:00000014
#068361:0000000000000054
#069321:24
#069361:0000000000000014
#070321:0033333300000000
#070351:0024
#070371:00000013
#0713a1:24
#0743b1:13
#074371:00240000
#074320:00130000
#074350:0024
#0743b1:0013
#074361:00000025
#074320:00000013
#075350:25
#0753b1:1323000000000000
#075350:0013230000000000
#075381:0000132300000000
#075320:0000001323000000
#076380:00130000
#0763a0:0024
#076351:00130000
#076321:0024
#014960:0000000000140000
#0149a0:000000000000000000000000000000000000000000000000000000000000000000000000000000000000000000000000000000000000000000000000000000000000000000000000000000000000000000000000000000000000000000000000000000000000000000000000000000000000000000000000000000000000000000000000000000000000000000000000000000000000000000000000000000000000000000000000000000000000000000000000000000000000000000000000000000000000000000000000000000000000000000000000000000000000000000000000000000000000000000000000000000000000000000000000000000000000000000000000000000000000000000000000000000000000000000000000000000000000000000000000000000000000000000000000000000000000000000000000000000000000000000000000000000000000000000000000000000000000000000000000000000000000000000000000000000000000000000000000000000000000000000000000000000000000000000000000000000000000000000000000000000000000000000000000000000000000000000000000000000000000000000000000000000000000000000000000000000000000000000000000000000000000000000000000000000000000000000000000000000000000000000000000000000000000000000000000000000000000000000000000000000000000000000000000000000000000000000000000000000000000000000000000000000000000000000000000000000000000000000000000000000000000000000000000000000000000000000000000000000000000000000000000000000000000000000000000000000000000000000000000000000000000000000000000000000000000000000000000000000000000000000000000000000000000000000000000000000000000000000000000000000000000000000000000000000000000000000000000000000000000000000000000000000000000000000000000000000000000000000000000000000000000000000000000000000000000000000000000000000000000000000000000000000000000000000000000000000000000000000000000000000000000000000000000000000000000000000000000000000000000000000000000000000000000000000000000000000000000000000000000000000000000000000000000000000000000000000000000000000000000000000000000000000000000000000000000000000000000000000000000000000000000000000000000000000000000000000000000000000000000000000000000000000000000000000000000000000000000000000000000000000000000000000000000000000000000000000000000000000000000000000000000000000000000000000000000000000000000000000000000000000000000000000000000000000000000000000000000000000000000000000000000000000000000000000000000000000000000000000000000000000000000000000000000000000000000000000000000000000000000000000000000000000000000000000000000000000000000000000000000000000000000000000000000000000000000000000000000000000000000000000000000000000000000000000000000000000000000000000000000000000000000000000000000000000000000000000000000000000000000000000000000000000000000000000000000000000000000000000000000000000000000000000000000000000000000000000000000000000000000000000000000000000000000000000000000000000000000000000000000000000000000000000000000000000000000000000000000000000000000000000000000000000000000000000000000000000000000000000000000000000000000000000000000000000000000000000000000000000000000000000000000000000000000000000000000000000000000000000000000000000000000000000000000000000000000000000000000000000000000000000000000000000000000000000000000000000000000000000000000000000000000000000000000000000000000000000000000000000000000000000000000000000000000000000000000000000000000000000000000000000000000000000000000000000000000000000000000000000000000000000000000000000000000000000000000000000000000000000000054240000000000000000000000000000000000000000000000000000000000000000000000000000000000000000000000000000000000000000000000000000000000000000000000000000000000000000000000000000000000000000000000000000000000000000000000000000000000000000000000000000000000000000000000000000000000000000000000000000000000000000000000000000000000000000000000000000000000000000000000000000000000000000000000000000000000000000000000000000000000000000000000000000000000000000000000000000000000000000000000
#015960:0000000000140000
#015920:000000000000000000000000000000000000000000000000000000000000000000000000000000000000000000000000000000000000000000000000000000000000000000000000000000000000000000000000000000000000000000000000000000000000000000000000000000000000000000000000000000000000000000000000000000000000000000000000000000000000000000000000000000000000000000000000000000000000000000000000000000000000000000000000000000000000000000000000000000000000000000000000000000000000000000000000000000000000000000000000000000000000000000000000000000000000000000000000000000000000000000000000000000000000000000000000000000000000000000000000000000000000000000000000000000000000000000000000000000000000000000000000000000000000000000000000000000000000000000000000000000000000000000000000000000000000000000000000000000000000000000000000000000000000000000000000000000000000000000000000000000000000000000000000000000000000000000000000000000000000000000000000000000000000000000000000000000000000000000000000000000000000000000000000000000000000000000000000000000000000000000000000000000000000000000000000000000000000000000000000000000000000000000000000000000000000000000000000000000000000000000000000000000000000000000000000000000000000000000000000000000000000000000000000000000000000000000000000000000000000000000000000000000000000000000000000000000000000000000000000000000000000000000000000000000000000000000000000000000000000000000000000000000000000000000000000000000000000000000000000000000000000000000000000000000000000000000000000000000000000000000000000000000000000000000000000000000000000000000000000000000000000000000000000000000000000000000000000000000000000000000000000000000000000000000000000000000000000000000000000000000000000000000000000000000000000000000000000000000000000000000000000000000000000000000000000000000000000000000000000000000000000000000000000000000000000000000000000000000000000000000000000000000000000000000000000000000000000000000000000000000000000000000000000000000000000000000000000000000000000000000000000000000000000000000000000000000000000000000000000000000000000000000000000000000000000000000000000000000000000000000000000000000000000000000000000000000000000000000000000000000000000000000000000000000000000000000000000000000000000000000000000000000000000000000000000000000000000000000000000000000000000000000000000000000000000000000000000000000000000000000000000000000000000000000000000000000000000000000000000000000000000000000000000000000000000000000000000000000000000000000000000000000000000000000000000000000000000000000000000000000000000000000000000000000000000000000000000000000000000000000000000000000000000000000000000000000000000000000000000000000000000000000000000000000000000000000000000000000000000000000000000000000000000000000000000000000000000000000000000000000000000000000000000000000000000000000000000000000000000000000000000000000000000000000000000000000000000000000000000000000000000000000000000000000000000000000000000000000000000000000000000000000000000000000000000000000000000000000000000000000000000000000000000000000000000000000000000000000000000000000000000000000000000000000000000000000000000000000000000000000000000000000000000000000000000000000000000000000000000000000000000000000000000000000000000000000000000000000000000000000000000000000000000000000000000000000000000000000000000000000000000000000000000000000000000000000000000000000000054240000000000000000000000000000000000000000000000000000000000000000000000000000000000000000000000000000000000000000000000000000000000000000000000000000000000000000000000000000000000000000000000000000000000000000000000000000000000000000000000000000000000000000000000000000000000000000000000000000000000000000000000000000000000000000000000000000000000000000000000000000000000000000000000000000000000000000000000000000000000000000000000000000000000000000000000000000000000000000000000
#029970:00000013
#0309b0:23
#0729a0:14
#072920:000000000000000000000000000000000000000000000000000000000000000000000000000000000000000000000000000000000000000000000000000000000000000000000000000000000000000000000000000000000000000000000000000000000000000000000000000000000000000000000000000000000000000000000000000000000000000000000000000000000000000000000000000000000000000000000000000000000000000000000000000000000000000000000000000000000000000000000000000000000000000000000000000000000000000000000000000000000000000000000000000000000000000000000000000000000000000000000000000000000000000000000000000000000000000000000000000000000000000000000000000000000000000000000000000000000000000000000000000000000000000000000000000000000000000000000000000000000000000000000000000000000000000000000000000000000000000000000000000000000000000000000000000000000000000000000000000000000000000000000000000000000000000000000000000000000000000000000000000000000000000000000000000000000000000000000000000000000000000000000000000000000000000000000000000000000000000000000000000000000000000000000000000000000000000000000000000000000000000000000000000000000000000000000000000000000000000000000000000000000000000000000000000000000000000000000000000000000000000000000000000000000000000000000000000000000000000000000000000000000000000000000000000000000000000000000000000000000000000000000000000000000000000000000000000000000000000000000000000000000000000000000000000000000000000000000000000000000000000000000000000000000000000000000000000000000000000000000000000000000000000000000000000000000000000000000000000000000000000000000000000000000000000000000000000000000000000000000000000000000000000000000000000000000000000000000000000000000000000000000000000000000000000000000000000000000000000000000000000000000000000000000000000000000000000000000000000000000000000000000000000000000000000000000000000000000000000000000000000000000000000000000000000000000000000000000000000000000000000000000054240000000000000000000000000000000000000000000000000000000000000000000000000000000000000000000000000000000000000000000000000000000000000000000000000000000000000000000000000000000000000000000000000000000000000000000000000000000000000000000000000000000000000000000000000000000000000000000000000000000000000000000000000000000000000000000000000000000000000000000000000000000000000000000000000000000000000000000000000000000000000000000000000000000000000000000000000000000000000000000000000000000000000000000000000000000000000000000000000000000000000000000000000000000000000000000000000000000000000000000000000000000000000000000000000000000000000000000000000000000000000000000000000000000000000000000000000000000000000000000000000000000000000000000000000000000000000000000000000000000000000000000000000000000000000000000000000000000000000000000000000000000000000000000000000000000000000000000000000000000000000000000000000000000000000000000000000000000000000000000000000000000000000000000000000000000000000000000000000000000000000000000000000000000000000000000000000000000000000000000000000000000000000000000000000000000000000000000000000000000000000000000000000000000000000000000000000000000000000000000000000000000000000000000000000000000000000000000000000000000000000000000000000000000000000000000000000000000000000000000000000000000000000000000000000000000000000000000000000000000000000000000000000000000000000000000000000000000000000000000000000000000000000000000000000000000000000000000000000000000000000000000000000000000000000000000000000000000000000000000000000000000000000000000000000000000000000000000000000000000000000000000000000000000000000000000000000000000000000000000000000000000000000000000000000000000000000000000000000000000000000000000000000000000000000000000000000000000000000000000000000000000000000000000000000000000000000000000000000000000000000000000000000000000000000000000000000000000000000000000000
#072921:14
#0729a1:000000000000000000000000000000000000000000000000000000000000000000000000000000000000000000000000000000000000000000000000000000000000000000000000000000000000000000000000000000000000000000000000000000000000000000000000000000000000000000000000000000000000000000000000000000000000000000000000000000000000000000000000000000000000000000000000000000000000000000000000000000000000000000000000000000000000000000000000000000000000000000000000000000000000000000000000000000000000000000000000000000000000000000000000000000000000000000000000000000000000000000000000000000000000000000000000000000000000000000000000000000000000000000000000000000000000000000000000000000000000000000000000000000000000000000000000000000000000000000000000000000000000000000000000000000000000000000000000000000000000000000000000000000000000000000000000000000000000000000000000000000000000000000000000000000000000000000000000000000000000000000000000000000000000000000000000000000000000000000000000000000000000000000000000000000000000000000000000000000000000000000000000000000000000000000000000000000000000000000000000000000000000000000000000000000000000000000000000000000000000000000000000000000000000000000000000000000000000000000000000000000000000000000000000000000000000000000000000000000000000000000000000000000000000000000000000000000000000000000000000000000000000000000000000000000000000000000000000000000000000000000000000000000000000000000000000000000000000000000000000000000000000000000000000000000000000000000000000000000000000000000000000000000000000000000000000000000000000000000000000000000000000000000000000000000000000000000000000000000000000000000000000000000000000000000000000000000000000000000000000000000000000000000000000000000000000000000000000000000000000000000000000000000000000000000000000000000000000000000000000000000000000000000000000000000000000000000000000000000000000000000000000000000000000000000000000000000000000000000000054240000000000000000000000000000000000000000000000000000000000000000000000000000000000000000000000000000000000000000000000000000000000000000000000000000000000000000000000000000000000000000000000000000000000000000000000000000000000000000000000000000000000000000000000000000000000000000000000000000000000000000000000000000000000000000000000000000000000000000000000000000000000000000000000000000000000000000000000000000000000000000000000000000000000000000000000000000000000000000000000000000000000000000000000000000000000000000000000000000000000000000000000000000000000000000000000000000000000000000000000000000000000000000000000000000000000000000000000000000000000000000000000000000000000000000000000000000000000000000000000000000000000000000000000000000000000000000000000000000000000000000000000000000000000000000000000000000000000000000000000000000000000000000000000000000000000000000000000000000000000000000000000000000000000000000000000000000000000000000000000000000000000000000000000000000000000000000000000000000000000000000000000000000000000000000000000000000000000000000000000000000000000000000000000000000000000000000000000000000000000000000000000000000000000000000000000000000000000000000000000000000000000000000000000000000000000000000000000000000000000000000000000000000000000000000000000000000000000000000000000000000000000000000000000000000000000000000000000000000000000000000000000000000000000000000000000000000000000000000000000000000000000000000000000000000000000000000000000000000000000000000000000000000000000000000000000000000000000000000000000000000000000000000000000000000000000000000000000000000000000000000000000000000000000000000000000000000000000000000000000000000000000000000000000000000000000000000000000000000000000000000000000000000000000000000000000000000000000000000000000000000000000000000000000000000000000000000000000000000000000000000000000000000000000000000000000000000000000000000000000
