This file was generated by Ched 2.7.0.0.
#TITLE ""
#ARTIST ""
#DESIGNER ""
#DIFFICULTY 0
#PLAYLEVEL
#SONGID ""
#WAVE ""
#WAVEOFFSET 0
#JACKET ""
#REQUEST "ticks_per_beat 480"
#00002: 4
#BPM01: 134
#00008: 01
#TIL00: ""
#VOLUME: ""
#HISPEED 00
#MEASUREHS 00
#0031a:14
#00414:14
#00514:14
#00618:14
#00610:41
#00718:14
#00812:14
#00912:14
#01114:14
#01414:14
#01518:14
#02718:14
#02714:0014
#02812:0016
#02818:26
#0281f:21
#02810:0041
#02918:1616
#03012:16
#03018:0016
#03112:16
#03118:0016
#03218:0016
#03212:26
#03312:1616
#03418:16
#03412:0016
#03518:16
#03512:0016
#04018:2616
#04010:41
#04112:16
#04118:0016
#04412:2616
#04518:16
#04512:0016
#05218:1616
#05312:1616
#05418:16
#05412:0016
#05518:16
#05512:0016
#05718:14
#05812:14
#05912:14
#0601a:14
#0611a:14
#06214:14
#0201f:11
#0021a:24
#05618:24
#05610:41
#01018:24
#02414:24
#01810:41
#04810:41
#0123a0:1434
#013380:3424
#016320:1434
#017340:3424
#0183a0:14
#018390:0034
#019380:24
#020320:14
#020330:0034
#021340:24
#022380:14
#022390:0034
#0233a0:24
#024340:14
#024330:0000003400000000
#024320:00000034
#025330:0034000000000000
#025340:0034
#026340:24
#0363a0:14
#0373a0:24
#038320:14
#039320:24
#042320:1626
#043380:1626
#046380:1626
#047320:1626
#048380:16
#048360:0036
#049360:36
#049380:0026
#050320:16
#050340:0036
#051340:36
#051320:0026
#063340:1434
#065320:0024000000000000
